Register · 
Username: Password:
 ·  Forgot password?

Полководцы России. От Древней Руси до ХХ века. Александр Невский (Елена Лосева) [2014, Россия, Документальный, история, биография, HDTVRip]

Reply to topic
DL-List and Torrent activity [Update пиров]
Size:  678 MB   |    Registered:  2 years 5 months   |    Completed:  0 times

Seeder not seen: Never

Leechers:  1  [  0 KB/s  ]   Show peers in full details
 
   
 
 
 
Author Message

Nestor_13 ®

Gender:

Longevity: 6 years 2 months

Posts: 21245

Post 04-Jul-2017 00:56

[Quote]

Полководцы России. От Древней Руси до ХХ века. Александр Невский
Страна: Россия
Студия: Российское Военно-Историческое общество, т/к Россия-1, ВГТРК
Жанр: Документальный, история, биография
Год выпуска: 2014
Продолжительность: 00:38:33
Режиссёр: Елена Лосева
Описание: Слава выдающегося полководца Александра Невского была велика уже при жизни. Но после смерти его стали почитать как святого, заступника земли русской. Князю было суждено в тяжелейший, переломный момент истории отечества деяниями своими предопределить, сумеет ли Русь сохраниться, как государство, уцелеет ли род славянский или исчезнет, как многие до него.
Доп. информация:
Автор релиза -
Источник для рипа - HDTV 1080i TS - моя запись с канала Россия-1 HD
Сэмпл: https://yadi.sk/i/qWsnwNMI3K6nhN
Рекламы нет!
Качество видео: HDTVRip
Формат видео: AVI
Видео: XviD, 720x400 (16:9), 25.000 fps, 2258 kbps, 0.314 bit/pixel
Аудио: Русский AC3, 48000 Гц, 2ch, 192 kbps

MediaInfo

ОбщееПолное имя : D:\Невский.2014.HDTVRip-ylnian.aviФормат : AVIФормат/Информация : Audio Video InterleaveРазмер файла : 678 МбайтПродолжительность : 38 м. 33 с.Общий поток : 2460 Кбит/секНазвание фильма : Невский.2014.HDTVRip-ylnianПрограмма кодирования : VirtualDubMod 1.5.10.2 (build 2540/release)Библиотека кодирования : VirtualDubMod build 2540/release
ВидеоИдентификатор : 0Формат : MPEG-4 VisualПрофиль формата : Advanced Simple@L5Параметр BVOP формата : 1Параметр QPel формата : НетПараметр GMC формата : Без точки переходаПараметр матрицы формата : Default (MPEG)Идентификатор кодека : XVIDИдентификатор кодека/Подсказка : XviDПродолжительность : 38 м. 33 с.Битрейт : 2258 Кбит/секШирина : 720 пикселейВысота : 400 пикселейСоотношение сторон : 16:9Частота кадров : 25,000 кадров/секЦветовое пространство : YUVСубдискретизация насыщенности : 4:2:0Битовая глубина : 8 битТип развёртки : ПрогрессивнаяМетод сжатия : С потерямиБит/(Пиксели*Кадры) : 0.314Размер потока : 623 Мбайт (92%)Библиотека кодирования : XviD 67
АудиоИдентификатор : 1Формат : AC-3Формат/Информация : Audio Coding 3Параметр Endianness формата : BigИдентификатор кодека : 2000Продолжительность : 38 м. 33 с.Вид битрейта : ПостоянныйБитрейт : 192 Кбит/секКаналы : 2 каналаРасположение каналов : Front: L RЧастота : 48,0 КГцЧастота кадров : 31,250 кадров/сек (1536 spf)Битовая глубина : 16 битМетод сжатия : С потерямиРазмер потока : 53,0 Мбайт (8%)Выравнивание : Разделение по промежуткамПродолжительность промежутка : 40 мс. (1,00 видеокадр)Время предзагрузки промежутка : 500 мс.Заголовок : RUSServiceKind/String : Complete Main

с IPTVRip-ом - - в моём рипе больше наполнение кадра по бокам и более естественная цветопередача
[ho-ho-torrent.biz]_t_5418385
Torrent: Registered ·  [ 2017-07-04 00:55 ] ·  f8c42ab4b7997fbac7b8d9ef41812a7e645c4f69

14 KB

Status: checked
Completed: 0 times
Size: 678 MB
Rating: 
(Votes: 0)
Say thanks: 0  Thanks
 
Похожие темы
[Profile] [PM]
Display posts from previous:    
Reply to topic

The time now is: Today 12:42

All times are GMT + 7 Hours



You cannot post new topics in this forum
You cannot reply to topics in this forum
You cannot edit your posts in this forum
You cannot delete your posts in this forum
You cannot vote in polls in this forum
You cannot attach files in this forum
You can download files in this forum