Register · 
Username: Password:
 ·  Forgot password?

Francis Cabrel - L\'In Extremis Tour (Live) [2016, Pop, Rock, Folk, Chanson française, BDRemux, 1080i]

Reply to topic
DL-List and Torrent activity [Update пиров]
Size:  34.59 GB   |    Registered:  3 months 7 days   |    Completed:  0 times
DL-List: None

Seeder not seen: Never

 
   
 
 
 
Author Message

temkin_88 ®

Gender:

Longevity: 6 years 6 months

Posts: 18122

Post 29-Dec-2019 05:42

[Quote]

Francis Cabrel - L'In Extremis Tour (Live)
Жанр: Pop, Rock, Folk, Chanson française
Продолжительность: 02:16:08
Год выпуска: 2016
Описание(на французском): L'In extremis tour est un album live de Francis Cabrel, enregistré les 4 et 5 mars 2016, dans la salle de Forest National, à Bruxelles, pendant la tournée suivant la sortie de l'album In extremis. Il est composé d'un double CD et d'un DVD ou d'un blu-ray. Il est également disponible en quadruple disque vinyle. Il est sorti le 14 octobre 2016. Album enregistré et mixé par Ludovic Lanen et réalisé par Michel Françoise. Mastering.
Треклист:
Introduction L'in Extremis Tour
La Voix Du Crooner
Assis Sur Le Rebord Du Monde
La Fille Qui M'accompagne
Mandela, Pendant Ce Temps
Partis Pour Rester
Les Gens Absents
C'est Ecrit
Encore Et Encore
Petite Sirene
L'encre De Tes Yeux
Cent Ans De Plus
Dur Comme Fer
Chene-Liege
African Tour
Petite Marie
Je T'aimais, Je T'aime, Je T'aimerai
Hors-Saison
La Robe Et L'echelle
La Corrida
Sarbacane
Les Tours Gratuits
Octobre
La Dame De Haute-Savoie
Rosie
In Extremis
Generique De Fin
Качество: BDRemux
Разрешение видео/развертка: 1080i
Контейнер: MKV
Видео кодек: H.264
Аудио кодек: DTS, PCM
Видео: AVC, 1920x1080 (16:9), 25.000 fps, 30.0 Mb/s
Аудио#1: DTS-HD MA, 48.0 kHz, 6 ch, 4 868 kb/s ( DTS core 48.0 kHz, 6 ch, 1509 kb/s)
Аудио#2: PCM, 48.0 kHz, 2 ch, 1 536 kb/s

Отчёт MediaInfo

GeneralUnique ID : 286495580583103043776418370113581740267 (0xD7890AB0A6527A36F1269B75BFADF0EB)Complete name : T:\Bluray\Francis.Cabrel.L.In.Estremis.2016-JdVeP.mkvFormat : MatroskaFormat version : Version 4File size : 34.6 GiBDuration : 2 h 16 minOverall bit rate mode : VariableOverall bit rate : 36.4 Mb/sMovie name : Francis.Cabrel.L.In.Estremis.2016.French.1080i.BluRay.Remux.AVC.DTS-HD.MA.5.1-JdVePEncoded date : UTC 2019-12-14 15:30:56Writing application : mkvmerge v41.0.0 ('Smarra') 64-bitWriting library : libebml v1.3.9 + libmatroska v1.5.2
VideoID : 1Format : AVCFormat/Info : Advanced Video CodecFormat profile : High@L4.1Format settings : CABAC / 2 Ref FramesFormat settings, CABAC : YesFormat settings, Reference : 2 framesFormat settings, GOP : M=1, N=21Codec ID : V_MPEG4/ISO/AVCDuration : 2 h 16 minBit rate mode : VariableBit rate : 30.0 Mb/sWidth : 1 920 pixelsHeight : 1 080 pixelsDisplay aspect ratio : 16:9Frame rate mode : VariableFrame rate : 50.000 FPSOriginal frame rate : 25.000 FPSColor space : YUVChroma subsampling : 4:2:0Bit depth : 8 bitsScan type : InterlacedScan type, store method : Separated fieldsScan order : Top Field FirstBits/(Pixel*Frame) : 0.289Stream size : 28.5 GiB (82%)Title : Francis Cabrel L'In Estremis 2016-JdVePLanguage : FrenchDefault : YesForced : No
Audio #1ID : 2Format : DTS XLLFormat/Info : Digital Theater SystemsCommercial name : DTS-HD Master AudioCodec ID : A_DTSDuration : 2 h 16 minBit rate mode : VariableBit rate : 4 868 kb/sChannel(s) : 6 channelsChannel layout : C L R Ls Rs LFESampling rate : 48.0 kHzFrame rate : 93.750 FPS (512 SPF)Bit depth : 24 bitsCompression mode : LosslessStream size : 4.63 GiB (13%)Title : French VFF DTS-HD MA 5.1 @ 4868 kbps (DTS Core: 5.1 / 48 kHz / 1509 kbps / 24-bit)Language : FrenchDefault : YesForced : No
Audio #2ID : 3Format : PCMFormat settings : Little / SignedCodec ID : A_PCM/INT/LITDuration : 2 h 16 minBit rate mode : ConstantBit rate : 1 536 kb/sChannel(s) : 2 channelsSampling rate : 48.0 kHzFrame rate : 200.000 FPS (240 SPF)Bit depth : 16 bitsStream size : 1.46 GiB (4%)Title : French VFF LPCM 2.0 @ 1536 kbpsLanguage : FrenchDefault : NoForced : No
Menu00:00:00.000 : :01.Introduction L'in Extremis Tour00:00:56.800 : :02.La Voix Du Crooner00:04:26.080 : :03.Assis Sur Le Rebord Du Monde00:09:00.000 : :04.La Fille Qui M'accompagne00:14:46.640 : :05.Mandela, Pendant Ce Temps00:20:36.560 : :06.Partis Pour Rester00:25:16.960 : :07.Les Gens Absents00:31:38.760 : :08.C'est Ecrit00:37:12.040 : :09.Encore Et Encore00:42:32.360 : :10.Petite Sirene00:46:19.280 : :11.L'encre De Tes Yeux00:49:50.960 : :12.Cent Ans De Plus00:55:36.120 : :13.Dur Comme Fer01:01:40.320 : :14.Le Chene-Liege01:05:39.480 : :15.African Tour01:11:18.240 : :16.Petite Marie01:16:09.720 : :17.Je T'aimais, Je T'aime, Je T'aimerai01:21:14.160 : :18.Hors-Saison01:27:12.200 : :19.La Robe Et L'echelle01:31:56.880 : :20.La Corrida01:39:20.560 : :21.Sarbacane01:46:47.720 : :22.Les Tours Gratuits01:52:11.320 : :23.Octobre01:56:14.200 : :24.La Dame De Haute-Savoie02:05:40.000 : :25.Rosie02:09:31.360 : :26.In Extremis02:14:30.520 : :27.Generique De Fin

Скриншоты


[ho-ho-torrent.biz]_t_5822108
Torrent: Registered ·  [ 2019-12-29 05:42 ] ·  508bc0cf399d1dea7ab8b9ca9a56166b0d191ed5

173 KB

Status: checked
Completed: 0 times
Size: 34.59 GB
Rating: 
(Votes: 0)
Say thanks: 0  Thanks
 
Похожие темы
[Profile] [PM]
Display posts from previous:    
Reply to topic

The time now is: Today 16:39

All times are GMT + 7 Hours



You cannot post new topics in this forum
You cannot reply to topics in this forum
You cannot edit your posts in this forum
You cannot delete your posts in this forum
You cannot vote in polls in this forum
You cannot attach files in this forum
You can download files in this forum