Register · 
Username: Password:
 ·  Forgot password?

(Pop-Rock) [CD] Barenaked Ladies - Gordon - 1992, FLAC (tracks+.cue), lossless

Reply to topic
DL-List and Torrent activity [Update пиров]
Size:  373 MB   |    Registered:  2 months 8 days   |    Completed:  0 times

Seeder not seen: Never

 
   
 
 
 
Author Message

ANTON1404 ®

Gender:

Longevity: 6 years 5 months

Posts: 19072

Post 20-Dec-2019 15:59

[Quote]

Barenaked Ladies / Gordon
Жанр: Pop-Rock
Носитель: CD
Страна-производитель диска (релиза): Canada
Год издания: 1992
Издатель (лейбл): Reprise Records/Sire
Номер по каталогу: CD 26956
Аудиокодек: FLAC (*.flac)
Тип рипа: tracks+.cue
Продолжительность: 0:59:13.
Источник: собственный рип
Наличие сканов в содержимом раздачи: да
Треклист:
01. Hello City [0:03:22.22]
02. Enid [0:04:08.28]
03. Grade 9 [0:02:55.05]
04. Brian Wilson [0:04:49.07]
05. Be My Yoko Ono [0:02:46.73]
06. Wrap Your Arms Around Me [0:04:34.42]
07. What a Good Boy [0:03:54.60]
08. The King of Bedside Manor [0:02:26.43]
09. Box Set [0:04:49.25]
10. I Love You [0:04:08.70]
11. New Kid (On the Block) [0:04:12.35]
12. Blame It on Me [0:03:54.22]
13. The Flag [0:03:53.30]
14. If I Had $1000000 [0:04:27.03]
15. Crazy [0:04:50.02]

Лог создания рипа

Exact Audio Copy V1.3 from 2. September 2016
Отчёт EAC об извлечении, выполненном 7. ноября 2019, 22:35
Barenaked Ladies / Gordon
Дисковод: ASUS DRW-1814BLT Adapter: 1 ID: 0
Режим чтения : ДостоверностьИспользование точного потока : ДаОтключение кэша аудио : ДаИспользование указателей C2 : Нет
Коррекция смещения при чтении : 6Способность читать области Lead-in и Lead-out : НетЗаполнение пропущенных сэмплов тишиной : ДаУдаление блоков с тишиной в начале и конце : НетПри вычислениях CRC использовались нулевые сэмплы : ДаИнтерфейс : Встроенный Win32-интерфейс для Win NT/2000Обработка зазоров : Добавлено к предыдущему треку
Выходной формат : Пользовательский кодировщикВыбранный битрейт : 128 kBit/sКачество : ВысокийДобавление ID3-тега : НетУтилита сжатия : C:\Program Files (x86)\Exact Audio Copy\Flac\flac.exeДополнительные параметры : -V -8 -T "Genre=%genre%" -T "Artist=%artist%" -T "Title=%title%" -T "Album=%albumtitle%" -T "Date=%year%" -T "Tracknumber=%tracknr%" -T "Comment=EAC1.0b2 FLAC -8" %source%
TOC извлечённого CD
Трек | Старт | Длительность | Начальный сектор | Конечный сектор --------------------------------------------------------------------- 1 | 0:00.00 | 3:22.22 | 0 | 15171 2 | 3:22.22 | 4:08.28 | 15172 | 33799 3 | 7:30.50 | 2:55.05 | 33800 | 46929 4 | 10:25.55 | 4:49.07 | 46930 | 68611 5 | 15:14.62 | 2:46.73 | 68612 | 81134 6 | 18:01.60 | 4:34.42 | 81135 | 101726 7 | 22:36.27 | 3:54.60 | 101727 | 119336 8 | 26:31.12 | 2:26.43 | 119337 | 130329 9 | 28:57.55 | 4:49.25 | 130330 | 152029 10 | 33:47.05 | 4:08.70 | 152030 | 170699 11 | 37:56.00 | 4:12.35 | 170700 | 189634 12 | 42:08.35 | 3:54.22 | 189635 | 207206 13 | 46:02.57 | 3:53.30 | 207207 | 224711 14 | 49:56.12 | 4:27.03 | 224712 | 244739 15 | 54:23.15 | 4:50.02 | 244740 | 266491
Трек 1
Имя файла R:\Раздача 84\Barenaked Ladies - 1992 - Gordon\01 Hello City.wav
Длина предзазора 0:00:02.00
Пиковый уровень 100.0 % Скорость извлечения 4.0 X Качество трека 100.0 % CRC теста 168C2B6E CRC копии 168C2B6E Точное извлечение (достоверность 54) [CBE76152] (AR v2) Копирование... OK
Трек 2
Имя файла R:\Раздача 84\Barenaked Ladies - 1992 - Gordon\02 Enid.wav
Пиковый уровень 100.0 % Скорость извлечения 4.4 X Качество трека 100.0 % CRC теста 0870E63E CRC копии 0870E63E Точное извлечение (достоверность 54) [716A58AD] (AR v2) Копирование... OK
Трек 3
Имя файла R:\Раздача 84\Barenaked Ladies - 1992 - Gordon\03 Grade 9.wav
Длина предзазора 0:00:00.70
Пиковый уровень 100.0 % Скорость извлечения 4.6 X Качество трека 100.0 % CRC теста BFEBE7EA CRC копии BFEBE7EA Точное извлечение (достоверность 54) [8B431E06] (AR v2) Копирование... OK
Трек 4
Имя файла R:\Раздача 84\Barenaked Ladies - 1992 - Gordon\04 Brian Wilson.wav
Длина предзазора 0:00:01.63
Пиковый уровень 100.0 % Скорость извлечения 5.4 X Качество трека 100.0 % CRC теста 47112DBE CRC копии 47112DBE Точное извлечение (достоверность 55) [5D0ABD36] (AR v2) Копирование... OK
Трек 5
Имя файла R:\Раздача 84\Barenaked Ladies - 1992 - Gordon\05 Be My Yoko Ono.wav
Длина предзазора 0:00:01.35
Пиковый уровень 100.0 % Скорость извлечения 3.6 X Качество трека 99.9 % CRC теста AB65AD4D CRC копии AB65AD4D Точное извлечение (достоверность 55) [0C700227] (AR v2) Копирование... OK
Трек 6
Имя файла R:\Раздача 84\Barenaked Ladies - 1992 - Gordon\06 Wrap Your Arms Around Me.wav
Длина предзазора 0:00:01.45
Пиковый уровень 99.9 % Скорость извлечения 4.3 X Качество трека 99.9 % CRC теста 642629E0 CRC копии 642629E0 Точное извлечение (достоверность 54) [BE7317B8] (AR v2) Копирование... OK
Трек 7
Имя файла R:\Раздача 84\Barenaked Ladies - 1992 - Gordon\07 What a Good Boy.wav
Пиковый уровень 100.0 % Скорость извлечения 6.1 X Качество трека 100.0 % CRC теста CBE58B7F CRC копии CBE58B7F Точное извлечение (достоверность 53) [E2A760DB] (AR v2) Копирование... OK
Трек 8
Имя файла R:\Раздача 84\Barenaked Ladies - 1992 - Gordon\08 The King of Bedside Manor.wav
Длина предзазора 0:00:02.55
Пиковый уровень 99.9 % Скорость извлечения 5.8 X Качество трека 100.0 % CRC теста 721D0480 CRC копии 721D0480 Точное извлечение (достоверность 54) [FB9AC02F] (AR v2) Копирование... OK
Трек 9
Имя файла R:\Раздача 84\Barenaked Ladies - 1992 - Gordon\09 Box Set.wav
Длина предзазора 0:00:02.68
Пиковый уровень 100.0 % Скорость извлечения 6.8 X Качество трека 100.0 % CRC теста 0D7902EB CRC копии 0D7902EB Точное извлечение (достоверность 55) [1203D7C3] (AR v2) Копирование... OK
Трек 10
Имя файла R:\Раздача 84\Barenaked Ladies - 1992 - Gordon\10 I Love You.wav
Длина предзазора 0:00:01.43
Пиковый уровень 100.0 % Скорость извлечения 6.9 X Качество трека 100.0 % CRC теста F6751A86 CRC копии F6751A86 Точное извлечение (достоверность 54) [8F6C3194] (AR v2) Копирование... OK
Трек 11
Имя файла R:\Раздача 84\Barenaked Ladies - 1992 - Gordon\11 New Kid (On the Block).wav
Длина предзазора 0:00:00.73
Пиковый уровень 100.0 % Скорость извлечения 7.2 X Качество трека 100.0 % CRC теста 6B94481A CRC копии 6B94481A Точное извлечение (достоверность 54) [C2F5AA38] (AR v2) Копирование... OK
Трек 12
Имя файла R:\Раздача 84\Barenaked Ladies - 1992 - Gordon\12 Blame It on Me.wav
Пиковый уровень 100.0 % Скорость извлечения 7.3 X Качество трека 100.0 % CRC теста 924F89BC CRC копии 924F89BC Точное извлечение (достоверность 54) [F7D5D6E8] (AR v2) Копирование... OK
Трек 13
Имя файла R:\Раздача 84\Barenaked Ladies - 1992 - Gordon\13 The Flag.wav
Пиковый уровень 77.6 % Скорость извлечения 5.4 X Качество трека 99.9 % CRC теста CFD0C8C8 CRC копии CFD0C8C8 Точное извлечение (достоверность 53) [1417A7CD] (AR v2) Копирование... OK
Трек 14
Имя файла R:\Раздача 84\Barenaked Ladies - 1992 - Gordon\14 If I Had $1000000.wav
Длина предзазора 0:00:00.52
Пиковый уровень 100.0 % Скорость извлечения 6.4 X Качество трека 100.0 % CRC теста 277694DB CRC копии 277694DB Точное извлечение (достоверность 54) [2DB3D36A] (AR v2) Копирование... OK
Трек 15
Имя файла R:\Раздача 84\Barenaked Ladies - 1992 - Gordon\15 Crazy.wav
Пиковый уровень 99.9 % Скорость извлечения 8.1 X Качество трека 100.0 % CRC теста 1DD810BB CRC копии 1DD810BB Точное извлечение (достоверность 50) [BB95B526] (AR v2) Копирование... OK
Все треки извлечены точно
Ошибок не произошло
Конец отчёта
---- CUETools DB Plugin V2.1.6
[CTDB TOCID: u3xehBRo1UpiRDRDf2WLmpX5aEM-] foundSubmit result: u3xehBRo1UpiRDRDf2WLmpX5aEM- has been confirmedTrack | CTDB Status 1 | (408/416) Accurately ripped 2 | (412/416) Accurately ripped 3 | (411/416) Accurately ripped 4 | (412/416) Accurately ripped 5 | (413/416) Accurately ripped 6 | (411/416) Accurately ripped 7 | (412/416) Accurately ripped 8 | (412/416) Accurately ripped 9 | (406/416) Accurately ripped 10 | (412/416) Accurately ripped 11 | (411/416) Accurately ripped 12 | (408/416) Accurately ripped 13 | (410/416) Accurately ripped 14 | (410/416) Accurately ripped 15 | (398/416) Accurately ripped
==== Контрольная сумма отчёта FBD31A065A6CE2FCA530968B64948E4B6DC0C7DC7B451DE587BBE66A25871E44 ====

Содержание индексной карты (.CUE)

REM GENRE Pop-RockREM DATE 1992REM DISCID DE0DE10FREM COMMENT "ExactAudioCopy v1.3"PERFORMER "Barenaked Ladies"TITLE "Gordon"REM COMPOSER ""FILE "01 Hello City.wav" WAVE TRACK 01 AUDIO TITLE "Hello City" PERFORMER "Barenaked Ladies" REM COMPOSER "" INDEX 01 00:00:00FILE "02 Enid.wav" WAVE TRACK 02 AUDIO TITLE "Enid" PERFORMER "Barenaked Ladies" REM COMPOSER "" INDEX 01 00:00:00 TRACK 03 AUDIO TITLE "Grade 9" PERFORMER "Barenaked Ladies" REM COMPOSER "" INDEX 00 04:07:33FILE "03 Grade 9.wav" WAVE INDEX 01 00:00:00 TRACK 04 AUDIO TITLE "Brian Wilson" PERFORMER "Barenaked Ladies" REM COMPOSER "" INDEX 00 02:53:17FILE "04 Brian Wilson.wav" WAVE INDEX 01 00:00:00 TRACK 05 AUDIO TITLE "Be My Yoko Ono" PERFORMER "Barenaked Ladies" REM COMPOSER "" INDEX 00 04:47:47FILE "05 Be My Yoko Ono.wav" WAVE INDEX 01 00:00:00 TRACK 06 AUDIO TITLE "Wrap Your Arms Around Me" PERFORMER "Barenaked Ladies" REM COMPOSER "" INDEX 00 02:45:28FILE "06 Wrap Your Arms Around Me.wav" WAVE INDEX 01 00:00:00FILE "07 What a Good Boy.wav" WAVE TRACK 07 AUDIO TITLE "What a Good Boy" PERFORMER "Barenaked Ladies" REM COMPOSER "" INDEX 01 00:00:00 TRACK 08 AUDIO TITLE "The King of Bedside Manor" PERFORMER "Barenaked Ladies" REM COMPOSER "" INDEX 00 03:52:05FILE "08 The King of Bedside Manor.wav" WAVE INDEX 01 00:00:00 TRACK 09 AUDIO TITLE "Box Set" PERFORMER "Barenaked Ladies" REM COMPOSER "" INDEX 00 02:23:50FILE "09 Box Set.wav" WAVE INDEX 01 00:00:00 TRACK 10 AUDIO TITLE "I Love You" PERFORMER "Barenaked Ladies" REM COMPOSER "" INDEX 00 04:47:57FILE "10 I Love You.wav" WAVE INDEX 01 00:00:00 TRACK 11 AUDIO TITLE "New Kid (On the Block)" PERFORMER "Barenaked Ladies" REM COMPOSER "" INDEX 00 04:07:72FILE "11 New Kid (On the Block).wav" WAVE INDEX 01 00:00:00FILE "12 Blame It on Me.wav" WAVE TRACK 12 AUDIO TITLE "Blame It on Me" PERFORMER "Barenaked Ladies" REM COMPOSER "" INDEX 01 00:00:00FILE "13 The Flag.wav" WAVE TRACK 13 AUDIO TITLE "The Flag" PERFORMER "Barenaked Ladies" REM COMPOSER "" INDEX 01 00:00:00 TRACK 14 AUDIO TITLE "If I Had $1000000" PERFORMER "Barenaked Ladies" REM COMPOSER "" INDEX 00 03:52:53FILE "14 If I Had $1000000.wav" WAVE INDEX 01 00:00:00FILE "15 Crazy.wav" WAVE TRACK 15 AUDIO TITLE "Crazy" PERFORMER "Barenaked Ladies" REM COMPOSER "" INDEX 01 00:00:00
[ho-ho-torrent.biz]_t_5822937
Torrent: Registered ·  [ 2019-12-20 15:58 ] ·  609b5a1a90413ec1fcc13b967d68394f8ec3473f

16 KB

Status: checked
Completed: 0 times
Size: 373 MB
Rating: 
(Votes: 0)
Say thanks: 0  Thanks
 
Похожие темы
[Profile] [PM]
Display posts from previous:    
Reply to topic

The time now is: Today 22:35

All times are GMT + 7 Hours



You cannot post new topics in this forum
You cannot reply to topics in this forum
You cannot edit your posts in this forum
You cannot delete your posts in this forum
You cannot vote in polls in this forum
You cannot attach files in this forum
You can download files in this forum