Register · 
Username: Password:
 ·  Forgot password?

(Electronic, Synth-pop, Space Rock) [CD] Rockets LBM Project - Universe One - 2019, FLAC (image+.cue), lossless

Reply to topic
DL-List and Torrent activity [Update пиров]
Size:  390 MB   |    Registered:  2 months 8 days   |    Completed:  1 time

Seeder not seen: 26 days

 
   
 
 
 
Author Message

ANTON1404 ®

Gender:

Longevity: 6 years 5 months

Posts: 19072

Post 20-Dec-2019 15:59

[Quote]

Rockets LBM Project / Universe One
Жанр: Electronic, Synth-pop, Space Rock
Носитель: CD
Страна-производитель диска (релиза): Russia
Год издания: 2019
Издатель (лейбл): ScentAir Records
Номер по каталогу: SA131
Страна исполнителя (группы): International
Аудиокодек: FLAC (*.flac)
Тип рипа: image+.cue
Продолжительность: 00:58:56
Источник: whirlwind
Наличие сканов в содержимом раздачи: да

01. No Recall (3:27)
02. Universe One (5:32)
03. Stargate (7:09)
04. Commander LBM (6:11)
05. Beautiful Night (4:29)
06. The Mirror (3:12)
07. Voyage (4:26)
08. Neutron Star (6:06)
09. Star Command (5:31)
10. Alien Dawn (2:31)
11. Looking 4 You (5:15)
12. Astronaut Story (4:56)

Лог создания рипа

Exact Audio Copy V1.0 beta 3 from 29. August 2011
Отчёт EAC об извлечении, выполненном 18. декабря 2019, 22:05
Rockets LBM Project / Universe One
Дисковод: HL-DT-STDVDRAM GH24NSD1 Adapter: 0 ID: 0
Режим чтения : ДостоверностьИспользование точного потока : ДаОтключение кэша аудио : ДаИспользование указателей C2 : Нет
Коррекция смещения при чтении : 6Способность читать области Lead-in и Lead-out : НетЗаполнение пропущенных сэмплов тишиной : ДаУдаление блоков с тишиной в начале и конце : НетПри вычислениях CRC использовались нулевые сэмплы : ДаИнтерфейс : Встроенный Win32-интерфейс для Win NT/2000
Выходной формат : Пользовательский кодировщикВыбранный битрейт : 1024 kBit/sКачество : ВысокийДобавление ID3-тега : НетУтилита сжатия : C:\Program Files (x86)\FLAC\flac.exeДополнительные параметры : -V -8 -T "Date=%year%" -T "Genre=%genre%" %source%
TOC извлечённого CD
Трек | Старт | Длительность | Начальный сектор | Конечный сектор --------------------------------------------------------------------- 1 | 0:00.00 | 3:26.60 | 0 | 15509 2 | 3:26.60 | 5:32.24 | 15510 | 40433 3 | 8:59.09 | 7:09.37 | 40434 | 72645 4 | 16:08.46 | 6:11.06 | 72646 | 100476 5 | 22:19.52 | 4:28.64 | 100477 | 120640 6 | 26:48.41 | 3:12.23 | 120641 | 135063 7 | 30:00.64 | 4:25.58 | 135064 | 154996 8 | 34:26.47 | 6:06.10 | 154997 | 182456 9 | 40:32.57 | 5:31.10 | 182457 | 207291 10 | 46:03.67 | 2:30.60 | 207292 | 218601 11 | 48:34.52 | 5:14.68 | 218602 | 242219 12 | 53:49.45 | 4:56.00 | 242220 | 264419
Характеристики диапазона извлечения и сообщения об ошибках
Выбранный диапазон
Имя файла F:\FLAC 1 whirlzzumm\Rockets LBM Project - Universe One.wav
Пиковый уровень 100.0 % Скорость извлечения 7.7 X Качество диапазона 100.0 % CRC теста 925FF42F CRC копии 925FF42F Копирование... OK
Ошибок не произошло
AccurateRip: сводка
Трек 1 : извлечено точно (доверие 1) [F055692B] (AR v2)Трек 2 : извлечено точно (доверие 1) [BBB0DE71] (AR v2)Трек 3 : извлечено точно (доверие 1) [BEE448DD] (AR v2)Трек 4 : извлечено точно (доверие 1) [1F778A49] (AR v2)Трек 5 : извлечено точно (доверие 1) [CD65AF26] (AR v2)Трек 6 : извлечено точно (доверие 1) [3A33E90B] (AR v2)Трек 7 : извлечено точно (доверие 1) [26C9D699] (AR v2)Трек 8 : извлечено точно (доверие 1) [578FC068] (AR v2)Трек 9 : извлечено точно (доверие 1) [8030EE8A] (AR v2)Трек 10 : извлечено точно (доверие 1) [956ED73E] (AR v2)Трек 11 : извлечено точно (доверие 1) [96853A96] (AR v2)Трек 12 : извлечено точно (доверие 1) [9BD6AFE7] (AR v2)
Все треки извлечены точно
Конец отчёта
==== Контрольная сумма отчёта 1B6AD22DB77CC6AFD7C3DE5454C5D40889C2CA01B253A1BD9C9C774440E54446 ====

Содержание индексной карты (.CUE)

REM GENRE "Electronic, Space Rock"REM DATE 2019REM DISCID 8E0DC50CREM COMMENT "ExactAudioCopy v1.0b3"PERFORMER "Rockets LBM Project "TITLE "Universe One"FILE "Rockets LBM Project - Universe One.flac" WAVE TRACK 01 AUDIO TITLE " No Recall" PERFORMER "Rockets LBM Project" FLAGS DCP INDEX 01 00:00:00 TRACK 02 AUDIO TITLE " Universe One" PERFORMER "Rockets LBM Project" FLAGS DCP INDEX 00 03:24:65 INDEX 01 03:26:60 TRACK 03 AUDIO TITLE "Stargate" PERFORMER "Rockets LBM Project" FLAGS DCP INDEX 00 08:57:09 INDEX 01 08:59:09 TRACK 04 AUDIO TITLE "Commander LBM" PERFORMER "Rockets LBM Project" FLAGS DCP INDEX 00 16:06:46 INDEX 01 16:08:46 TRACK 05 AUDIO TITLE "Beautiful Night" PERFORMER "Rockets LBM Project" FLAGS DCP INDEX 00 22:17:52 INDEX 01 22:19:52 TRACK 06 AUDIO TITLE "The Mirror" PERFORMER "Rockets LBM Project" FLAGS DCP INDEX 00 26:46:43 INDEX 01 26:48:41 TRACK 07 AUDIO TITLE "Voyage" PERFORMER "Rockets LBM Project" FLAGS DCP INDEX 00 29:58:69 INDEX 01 30:00:64 TRACK 08 AUDIO TITLE "Neutron Star" PERFORMER "Rockets LBM Project" FLAGS DCP INDEX 00 34:24:47 INDEX 01 34:26:47 TRACK 09 AUDIO TITLE "Star Command" PERFORMER "Rockets LBM Project" FLAGS DCP INDEX 00 40:30:62 INDEX 01 40:32:57 TRACK 10 AUDIO TITLE "Alien Dawn" PERFORMER "Rockets LBM Project" FLAGS DCP INDEX 00 46:01:67 INDEX 01 46:03:67 TRACK 11 AUDIO TITLE "Looking 4 You" PERFORMER "Rockets LBM Project" FLAGS DCP INDEX 00 48:32:52 INDEX 01 48:34:52 TRACK 12 AUDIO TITLE "Astronaut Story" PERFORMER "Rockets LBM Project" FLAGS DCP INDEX 00 53:47:45 INDEX 01 53:49:45

Об альбоме (сборнике)

This album is a story about the spaceship Akruse, the lost spaceship of a special fleet,
that having gone beyond our galaxy, was carried away into deep space at a speed of 27%% of the speed of light.
Release Date 2019-12-10. Limited to 500 copies.

LBM - вокалист Rockets 2000-х (Don't Stop) и русский музыкант, работающий в США, Дмитрий Нелепин.
Совместный альбом под названием Rockets LBM Project "Universe One"
«Universe One» are:
- Лука Бестетти / менеджмент, лирика, вокал.
- Дмитрий Нелепин / идея, аранжировка, звук.
- Инесса Шавровская / работа с аналоговыми синтезаторами и вторым вокодер-сэмплером.
Official DR value: 9
scent-air records
discogs
[ho-ho-torrent.biz]_t_5822975
Torrent: Registered ·  [ 2019-12-20 15:58 ] ·  cc9744c8a2081688ae038e341299f59b74129cb4

32 KB

Status: checked
Completed: 1 times
Size: 390 MB
Rating: 
(Votes: 0)
Say thanks: 0  Thanks
 
Похожие темы
[Profile] [PM]
Display posts from previous:    
Reply to topic

The time now is: Today 21:32

All times are GMT + 7 Hours



You cannot post new topics in this forum
You cannot reply to topics in this forum
You cannot edit your posts in this forum
You cannot delete your posts in this forum
You cannot vote in polls in this forum
You cannot attach files in this forum
You can download files in this forum