Register · 
Username: Password:
 ·  Forgot password?

[TR24][OF] Ager Sonus - Mithra - 2019 (Dark Ambient)

Reply to topic
DL-List and Torrent activity [Update пиров]
Size:  450 MB   |    Registered:  5 months 17 days   |    Completed:  0 times

Seeder not seen: Never

 
   
 
 
 
Author Message

Nestor_13 ®

Gender:

Longevity: 6 years 2 months

Posts: 21245

Post 26-Jun-2019 02:58

[Quote]

Ager Sonus - Mithra



• Формат записи | Источник записи: [TR24][OF]
• Наличие водяных знаков: Нет
• Страна-производитель релиза: USA (Oregon)
• Год издания релиза: 2019
• Жанр: Dark Ambient
• Издатель (лейбл): Cryo Chamber
• Продолжительность: 00:53:41
• Источник, релизер: NewTeam ®
• WEB bandcamp
• Контейнер: FLAC (*.flac)
• Тип рипа: tracks
• Разрядность: 24/44,1
• Формат: WAV (flac.ape.wv)
• Количество каналов: 2.0
• Наличие сканов: front

01 - The Settlement (00:05:49)
02 - Carpe Noctem (00:05:12)
03 - Beneath (00:08:15)
04 - Initiation (00:06:42)
05 - Dawn (00:05:13)
06 - Reborn (00:05:59)
07 - Ritual (00:07:22)
08 - Banished (00:09:06)

-

• Замер динамического диапазона •

foobar2000 1.2.5 / Замер динамического диапазона (DR) 1.1.1Дата отчёта: 2019-04-22 12:47:09
--------------------------------------------------------------------------------Анализ: Ager Sonus / Mithra--------------------------------------------------------------------------------
DR Пики RMS Продолжительность трека--------------------------------------------------------------------------------DR10 -1.25 дБ -13.64 дБ 5:49 01-The SettlementDR9 -1.25 дБ -13.50 дБ 5:12 02-Carpe NoctemDR9 -1.25 дБ -12.20 дБ 8:15 03-BeneathDR11 -1.25 дБ -15.33 дБ 6:43 04-InitiationDR9 -1.25 дБ -14.21 дБ 5:14 05-DawnDR11 -1.25 дБ -14.49 дБ 5:59 06-RebornDR9 -1.25 дБ -14.04 дБ 7:22 07-RitualDR10 -1.25 дБ -14.71 дБ 9:06 08-Banished--------------------------------------------------------------------------------
Количество треков: 8Реальные значения DR: DR10
Частота: 44100 ГцКаналов: 2Разрядность: 24Битрейт: 1079 кбит/сКодек: FLAC================================================================================
--• Information •
On this atmospheric ambient album Ager Sonus takes us back in time as we join the Cult of Mithras.
"The cinnamon scented scroll lies perfectly aligned on your silken bed sheet, the black seal of a lion's head catches your gasp as it stares you down. The test has begun!
You stumble through the dark, your path a reflection of moonlight periodically piercing the clouds. Bare feet scrape rain soaked ground, the smell of wet earth and blood fills your exhausted breath. A faint glow signals you in the distance. Is this the beckoning you have been waiting for?"
The Roman deity “Mithras” appears in historical records of the late 1st century A.D., and disappears from it in the late 4th century A.D. Unlike the major mythological figures of Graeco-Roman religion no ancient source preserves the mythology of the god. All the information is therefore derived from depictions on monuments, and the limited mentions of the cult in literary sources.
The ancient cult of “Mithras” were especially popular among the Roman military who were intrigued by its mysteries. Worshippers of Mithras met in underground temples, now called “Mithraea”, which survived (to this day) in large numbers. The cult is rumored to have had its centre in Rome and was popular throughout the western half of the empire, as far south as Roman Africa and Numidia, as far north as Roman Britain and to a lesser extent in Roman Syria in the east.
Mithraism is viewed as a rival of early Christianity. In the 4th century, Mithraists faced persecution from Roman Christians and the religion was subsequently suppressed and eliminated in the empire by the end of the century.
Recommended for fans of instrumental ambient and video game/film soundtracks
Available in 24 bit
released March 26, 2019
Written, Produced, Performed - Thomas Langewehr
Artwork and Video - Erik "Keosz" Osvald
Mastering - Simon Heath
---
[ho-ho-torrent.biz]_t_5748337
Torrent: Registered ·  [ 2019-06-26 02:58 ] ·  5b0751c4d0d57fa935b273d6906477caf49c2f45

18 KB

Status: checked
Completed: 0 times
Size: 450 MB
Rating: 
(Votes: 0)
Say thanks: 0  Thanks
 
Похожие темы
[Profile] [PM]
Display posts from previous:    
Reply to topic

The time now is: Today 12:41

All times are GMT + 7 Hours



You cannot post new topics in this forum
You cannot reply to topics in this forum
You cannot edit your posts in this forum
You cannot delete your posts in this forum
You cannot vote in polls in this forum
You cannot attach files in this forum
You can download files in this forum