Register · 
Username: Password:
 ·  Forgot password?

The Necks - Melbourne Jazz Festival 2017 [2017, Experimental Jazz / Ambient / Abstract / Minimalis, HDTV 1080i]

Reply to topic
DL-List and Torrent activity [Update пиров]
Size:  1.3 GB   |    Registered:  5 months 16 days   |    Completed:  1 time

Seeder not seen: 4 months

 
   
 
 
 
Author Message

rychkalov ®

Gender:

Longevity: 6 years 2 months

Posts: 18134

Post 24-Jun-2019 15:08

[Quote]

The Necks
Melbourne Jazz Festival 2017

-
Страна исполнителя: Australia
Жанр: Experimental Jazz / Ambient / Abstract / Minimalis
Продолжительность: 00:48:09
Год выпуска: 2017
Musicians:
Chris Abrahams - piano
Lloyd Swanton - double bass
Tony Buck - drums
Track List:
... исполняется одна композиция ...
... информация об её названии в самом релизе – не указана ...
Доп. информация:
Melbourne International Jazz Festival, The Jazz Lab, June 5, 2017, Australia
The Necks Official Site
The Necks - Melbourne Jazz Fest 2017 mezzo.tv
Огромная Благодарность - [url=profile.php?mode=viewprofile&u=15142747]ssegaster[/url] - за предоставленный материал ...
Спасибо большое !!!
Качество: HDTV
Разрешение видео/развертка: 1080i
Контейнер: TS
Видео кодек: H.264
Аудио кодек: MPEG
Видео: 3 412 Kbps, 1920*1080 (16:9), at 25.000 fps, AVC (Component) (High@L4.0) (CABAC / 4 Ref Frames)
Аудио: Russian, 256 Kbps, 48.0 KHz, 2 channels, MPEG Audio (Version 1) (Layer 2)

Отчёт MediaInfo

GeneralID : 1 (0x1)Complete name : C:\_mezzo live HD\mezzo live HD_The Necks - Melbourne Jazz Festival 2017.tsFormat : MPEG-TSFile size : 1.30 GiBDuration : 48mn 9sOverall bit rate mode : VariableOverall bit rate : 3 862 Kbps
VideoID : 306 (0x132)Menu ID : 17106 (0x42D2)Format : AVCFormat/Info : Advanced Video CodecFormat profile : High@L4.0Format settings, CABAC : YesFormat settings, ReFrames : 4 framesCodec ID : 27Duration : 48mn 9sBit rate : 3 413 KbpsWidth : 1 920 pixelsHeight : 1 080 pixelsDisplay aspect ratio : 16:9Frame rate : 25.000 fpsStandard : ComponentColor space : YUVChroma subsampling : 4:2:0Bit depth : 8 bitsScan type : InterlacedScan order : Top Field FirstBits/(Pixel*Frame) : 0.066Stream size : 1.15 GiB (88%)Color primaries : BT.709Transfer characteristics : BT.709Matrix coefficients : BT.709
AudioID : 406 (0x196)Menu ID : 17106 (0x42D2)Format : MPEG AudioFormat version : Version 1Format profile : Layer 2Codec ID : 3Duration : 48mn 9sBit rate mode : ConstantBit rate : 256 KbpsChannel(s) : 2 channelsSampling rate : 48.0 KHzCompression mode : LossyStream size : 88.2 MiB (7%)Language : Russian
[ho-ho-torrent.biz]_t_5746226
Torrent: Registered ·  [ 2019-06-24 15:08 ] ·  f299d6b9372f624197bd9673ae774005190301a7

13 KB

Status: checked
Completed: 1 times
Size: 1.3 GB
Rating: 
(Votes: 0)
Say thanks: 0  Thanks
 
Похожие темы
[Profile] [PM]
Display posts from previous:    
Reply to topic

The time now is: Today 18:57

All times are GMT + 7 Hours



You cannot post new topics in this forum
You cannot reply to topics in this forum
You cannot edit your posts in this forum
You cannot delete your posts in this forum
You cannot vote in polls in this forum
You cannot attach files in this forum
You can download files in this forum