Register · 
Username: Password:
 ·  Forgot password?

(Pop) [CDR] Веселые ребята + VA - Музыкальный глобус Плюс - 2015, FLAC (image+.cue), lossless

Reply to topic
DL-List and Torrent activity [Update пиров]
Size:  488 MB   |    Registered:  5 months 11 days   |    Completed:  2 times

Seeder not seen: 23 days

 
   
 
 
 
Author Message

Nestor_13 ®

Gender:

Longevity: 6 years 2 months

Posts: 21203

Post 24-Jun-2019 10:59

[Quote]

Веселые ребята + VA / Музыкальный глобус Плюс
Жанр: Pop
Носитель: CDR
Страна-производитель диска (релиза): Россия
Год издания: 2015
Издатель (лейбл): Нет
Номер по каталогу: Нет
Страна исполнителя (группы): Планета Земля
Аудиокодек: FLAC (*.flac)
Тип рипа: image+.cue
Продолжительность: 01:19:51
Источник: собственный рип
Наличие сканов в содержимом раздачи: нет
Треклист:
01. Веселые ребята / 01. Уходило лето [02:54]
02. Baccara / 02. Cara Mia [02:57]
03. Веселые ребята / 03. Люба-Любовь [03:35]
04. The Shadows / 04. Let Me Be The One [02:51]
05. Веселые ребята / 05. Никогда не поверю [04:42]
06. Boney M / 06. Never Change Lovers In The [05:33]
07. Веселые ребята / 07. Школьная пора [03:34]
08. Stevie Wonder / 08. Ebony Eyes [04:09]
09. Веселые ребята / 09. Нет, я не жду [03:13]
10. Smokie / 10. What Can I Do [03:35]
11. Веселые ребята / 11. Что ты хочешь мне сказать [03:53]
12. Pussycat / 12. Take Me [02:38]
13. Веселые ребята / 13. В последний раз [03:10]
14. Jeanette / 14. Por Que Te Vas [03:22]
15. Веселые ребята / 15. Песня деревенского почтальо [03:01]
16. Skaldowie / 16. Medytacje Wiejskiego Liston [02:51]
17. Веселые ребята / 17. Анжелина [03:00]
18. Louis Prima / 18. Angelina & Zooma Zooma [04:20]
19. Веселые ребята / 19. Белладонна [05:59]
20. UFO / 20. Belladonna [04:32]
21. Веселые ребята / 21. Облади-облада [02:43]
22. The Beatles / 22. Ob-La-Di, Ob-La-Da [03:08]

Лог создания рипа

Exact Audio Copy V1.0 beta 3 from 29. August 2011
Отчёт EAC об извлечении, выполненном 23. июня 2019, 22:38
Веселые ребята + VA / Музыкальный глобус +
Дисковод: Optiarc DVD RW AD-7280S Adapter: 1 ID: 0
Режим чтения : ДостоверностьИспользование точного потока : ДаОтключение кэша аудио : ДаИспользование указателей C2 : Нет
Коррекция смещения при чтении : 48Способность читать области Lead-in и Lead-out : НетЗаполнение пропущенных сэмплов тишиной : ДаУдаление блоков с тишиной в начале и конце : НетПри вычислениях CRC использовались нулевые сэмплы : ДаИнтерфейс : Встроенный Win32-интерфейс для Win NT/2000
Выходной формат : Пользовательский кодировщикВыбранный битрейт : 768 kBit/sКачество : ВысокийДобавление ID3-тега : НетУтилита сжатия : C:\Program Files (x86)\Exact Audio Copy\FLAC\FLAC.EXEДополнительные параметры : -8 -V -T "ARTIST=%artist%" -T "TITLE=%title%" -T "ALBUM=%albumtitle%" -T "DATE=%year%" -T "TRACKNUMBER=%tracknr%" -T "GENRE=%genre%" -T "COMMENT=%comment%" -T "BAND=%albuminterpret%" -T "ALBUMARTIST=%albuminterpret%" -T "COMPOSER=%composer%" %haslyrics%--tag-from-file=LYRICS="%lyricsfile%"%haslyrics% -T "DISCNUMBER=%cdnumber%" -T "TOTALDISCS=%totalcds%" -T "TOTALTRACKS=%numtracks%" %hascover%--picture="%coverfile%"%hascover% %source% -o %dest%
TOC извлечённого CD
Трек | Старт | Длительность | Начальный сектор | Конечный сектор --------------------------------------------------------------------- 1 | 0:00.00 | 2:54.33 | 0 | 13082 2 | 2:54.33 | 2:57.22 | 13083 | 26379 3 | 5:51.55 | 3:35.60 | 26380 | 42564 4 | 9:27.40 | 2:51.50 | 42565 | 55439 5 | 12:19.15 | 4:42.23 | 55440 | 76612 6 | 17:01.38 | 5:33.70 | 76613 | 101657 7 | 22:35.33 | 3:34.49 | 101658 | 117756 8 | 26:10.07 | 4:09.00 | 117757 | 136431 9 | 30:19.07 | 3:13.38 | 136432 | 150944 10 | 33:32.45 | 3:35.13 | 150945 | 167082 11 | 37:07.58 | 3:53.45 | 167083 | 184602 12 | 41:01.28 | 2:38.18 | 184603 | 196470 13 | 43:39.46 | 3:10.16 | 196471 | 210736 14 | 46:49.62 | 3:22.60 | 210737 | 225946 15 | 50:12.47 | 3:01.61 | 225947 | 239582 16 | 53:14.33 | 2:51.61 | 239583 | 252468 17 | 56:06.19 | 3:00.00 | 252469 | 265968 18 | 59:06.19 | 4:20.50 | 265969 | 285518 19 | 63:26.69 | 5:59.02 | 285519 | 312445 20 | 69:25.71 | 4:32.40 | 312446 | 332885 21 | 73:58.36 | 2:43.20 | 332886 | 345130 22 | 76:41.56 | 3:08.72 | 345131 | 359302
Характеристики диапазона извлечения и сообщения об ошибках
Выбранный диапазон
Имя файла D:\РАЗДАЧИ\Веселые ребята + VA-Музыкальный глобус + (2019)\Веселые ребята + VA - Музыкальный глобус +.wav
Пиковый уровень 100.0 % Скорость извлечения 3.6 X Качество диапазона 100.0 % CRC теста B378F196 CRC копии B378F196 Копирование... OK
Ошибок не произошло
AccurateRip: сводка
Трек 1 отсутствует в базе данныхТрек 2 отсутствует в базе данныхТрек 3 отсутствует в базе данныхТрек 4 отсутствует в базе данныхТрек 5 отсутствует в базе данныхТрек 6 отсутствует в базе данныхТрек 7 отсутствует в базе данныхТрек 8 отсутствует в базе данныхТрек 9 отсутствует в базе данныхТрек 10 отсутствует в базе данныхТрек 11 отсутствует в базе данныхТрек 12 отсутствует в базе данныхТрек 13 отсутствует в базе данныхТрек 14 отсутствует в базе данныхТрек 15 отсутствует в базе данныхТрек 16 отсутствует в базе данныхТрек 17 отсутствует в базе данныхТрек 18 отсутствует в базе данныхТрек 19 отсутствует в базе данныхТрек 20 отсутствует в базе данныхТрек 21 отсутствует в базе данныхТрек 22 отсутствует в базе данных
Ни одного трека нет в базе AccurateRip
Конец отчёта
==== Контрольная сумма отчёта 87C2E53B46D7A8301691B3DDC875D94BC3EAF4C24D56191353BD1705B8ADDAFD ====
[ho-ho-torrent.biz]_t_5748238
Torrent: Registered ·  [ 2019-06-24 10:59 ] ·  b1b828bf3ed17dae6061c4e6a4e04ee325b57068

20 KB

Status: checked
Completed: 2 times
Size: 488 MB
Rating: 
(Votes: 0)
Say thanks: 0  Thanks
 
Похожие темы
[Profile] [PM]
Display posts from previous:    
Reply to topic

The time now is: Today 00:57

All times are GMT + 7 Hours



You cannot post new topics in this forum
You cannot reply to topics in this forum
You cannot edit your posts in this forum
You cannot delete your posts in this forum
You cannot vote in polls in this forum
You cannot attach files in this forum
You can download files in this forum