Register · 
Username: Password:
 ·  Forgot password?

(Vocal Jazz) [CD] May Okita - Art of Life - 2019, FLAC (tracks+.cue), lossless

Reply to topic
DL-List and Torrent activity [Update пиров]
Size:  209 MB   |    Registered:  5 months 21 day   |    Completed:  1 time

Seeder not seen: 5 months 19 days

 
   
 
 
 
Author Message

FragoMan ®

Gender:

Longevity: 6 years 2 months

Posts: 24160

Post 24-Jun-2019 02:14

[Quote]

May Okita - Art of Life
Жанр: Vocal Jazz
Носитель: CD
Страна-производитель диска (релиза): США
Год издания: 2019
Издатель (лейбл): Origin Records
Номер по каталогу: 82771
Аудиокодек: FLAC (*.flac)
Тип рипа: tracks+.cue
Продолжительность: 00:45:32
Источник: Soliloquy
Наличие сканов в содержимом раздачи: да
Треклист:
01. Let's Face the Music and Dance (Berlin) - 3:46
02. Both Sides Now (Mitchell) - 4:55
03. Detour Ahead (Ellis-Frigo-Carter) - 5:15
04. Art of Life (Okita-Nelson) - 4:51
05. Blue Rose (Ellington) - 4:27
06. When She Loved Me (Newman) - 5:05
07. Some Other Time (Comden-Green-Bernstein) - 4:22
08. Smile (Turner-Parsons-Chaplin) - 3:48
09. What a Difference a Day Made (Grever-Adams) - 4:31
10. Ev'ry Time We Say Goodbye (Porter) - 4:32
Состав:
May Okita - vocals
Josh Nelson - piano
Larry Koonse - guitar
Recorded at TriTone Studios, Los Angeles, CA on May 1-2, 2018.

Лог создания рипа

Exact Audio Copy V1.3 from 2. September 2016
EAC extraction logfile from 20. June 2019, 6:20
May Okita / Art of Life
Used drive : TSSTcorpCDDVDW TS-H653N Adapter: 1 ID: 0
Read mode : SecureUtilize accurate stream : YesDefeat audio cache : YesMake use of C2 pointers : No
Read offset correction : 6Overread into Lead-In and Lead-Out : NoFill up missing offset samples with silence : YesDelete leading and trailing silent blocks : NoNull samples used in CRC calculations : YesUsed interface : Native Win32 interface for Win NT & 2000Gap handling : Appended to previous track
Used output format : User Defined EncoderSelected bitrate : 1024 kBit/sQuality : HighAdd ID3 tag : NoCommand line compressor : C:\Program Files (x86)\Exact Audio Copy\Flac\flac.exeAdditional command line options : -8 -V -T "ARTIST=%artist%" -T "TITLE=%title%" -T "ALBUM=%albumtitle%" -T "DATE=%year%" -T "TRACKNUMBER=%tracknr%" -T "TOTALTRACKS=%numtracks%" -T "GENRE=%genre%" -T "ALBUMARTIST=%albumartist%" -T "ALBUM ARTIST=%albumartist%" -T "COMMENT=EAC Secure Mode, Test & Copy, AccurateRip, FLAC -8" %source%
TOC of the extracted CD
Track | Start | Length | Start sector | End sector --------------------------------------------------------- 1 | 0:00.00 | 3:46.35 | 0 | 16984 2 | 3:46.35 | 4:54.69 | 16985 | 39103 3 | 8:41.29 | 5:14.74 | 39104 | 62727 4 | 13:56.28 | 4:50.64 | 62728 | 84541 5 | 18:47.17 | 4:26.48 | 84542 | 104539 6 | 23:13.65 | 5:05.05 | 104540 | 127419 7 | 28:18.70 | 4:21.50 | 127420 | 147044 8 | 32:40.45 | 3:47.43 | 147045 | 164112 9 | 36:28.13 | 4:30.59 | 164113 | 184421 10 | 40:58.72 | 4:31.67 | 184422 | 204813
Track 1
Filename C:\That is the question\May Okita - Art of Life (2019) [FLAC] {ORIGIN 82771}\01 - Let's Face The Music and Dance.wav
Pre-gap length 0:00:02.00
Peak level 97.7 % Extraction speed 4.5 X Track quality 100.0 % Test CRC CAA3BC4F Copy CRC CAA3BC4F Accurately ripped (confidence 2) [E3F0D13A] (AR v2) Copy OK
Track 2
Filename C:\That is the question\May Okita - Art of Life (2019) [FLAC] {ORIGIN 82771}\02 - Both Sides Now.wav
Peak level 97.7 % Extraction speed 5.2 X Track quality 100.0 % Test CRC 2F7F2908 Copy CRC 2F7F2908 Accurately ripped (confidence 2) [6ACEEBD7] (AR v2) Copy OK
Track 3
Filename C:\That is the question\May Okita - Art of Life (2019) [FLAC] {ORIGIN 82771}\03 - Detour Ahead.wav
Peak level 93.9 % Extraction speed 5.8 X Track quality 100.0 % Test CRC F8A7D960 Copy CRC F8A7D960 Accurately ripped (confidence 2) [AA094693] (AR v2) Copy OK
Track 4
Filename C:\That is the question\May Okita - Art of Life (2019) [FLAC] {ORIGIN 82771}\04 - Art of Life.wav
Peak level 97.7 % Extraction speed 5.2 X Track quality 99.9 % Test CRC 311B7108 Copy CRC 311B7108 Accurately ripped (confidence 2) [1A0CAB3D] (AR v2) Copy OK
Track 5
Filename C:\That is the question\May Okita - Art of Life (2019) [FLAC] {ORIGIN 82771}\05 - Blue Rose.wav
Peak level 97.7 % Extraction speed 6.6 X Track quality 100.0 % Test CRC 7D478CE3 Copy CRC 7D478CE3 Accurately ripped (confidence 2) [ED79DD61] (AR v2) Copy OK
Track 6
Filename C:\That is the question\May Okita - Art of Life (2019) [FLAC] {ORIGIN 82771}\06 - When She Loved Me.wav
Peak level 97.7 % Extraction speed 7.1 X Track quality 100.0 % Test CRC 6CDC0D69 Copy CRC 6CDC0D69 Accurately ripped (confidence 2) [D1F3468A] (AR v2) Copy OK
Track 7
Filename C:\That is the question\May Okita - Art of Life (2019) [FLAC] {ORIGIN 82771}\07 - Some Other Time.wav
Peak level 97.7 % Extraction speed 7.3 X Track quality 100.0 % Test CRC C09C1A0B Copy CRC C09C1A0B Accurately ripped (confidence 2) [185C48CE] (AR v2) Copy OK
Track 8
Filename C:\That is the question\May Okita - Art of Life (2019) [FLAC] {ORIGIN 82771}\08 - Smile.wav
Peak level 97.7 % Extraction speed 7.4 X Track quality 100.0 % Test CRC 9D89D156 Copy CRC 9D89D156 Accurately ripped (confidence 2) [A54DC8BC] (AR v2) Copy OK
Track 9
Filename C:\That is the question\May Okita - Art of Life (2019) [FLAC] {ORIGIN 82771}\09 - What A Diffrence a Day Made.wav
Peak level 97.7 % Extraction speed 7.9 X Track quality 100.0 % Test CRC B377FC10 Copy CRC B377FC10 Accurately ripped (confidence 2) [D9A47BC0] (AR v2) Copy OK
Track 10
Filename C:\That is the question\May Okita - Art of Life (2019) [FLAC] {ORIGIN 82771}\10 - Ev'ry Time We Say Goodbye.wav
Peak level 90.9 % Extraction speed 6.8 X Track quality 99.9 % Test CRC 1FE96160 Copy CRC 1FE96160 Accurately ripped (confidence 2) [4CB4FAEF] (AR v2) Copy OK
All tracks accurately ripped
No errors occurred
End of status report
---- CUETools DB Plugin V2.1.6
[CTDB TOCID: y9KpQHv8BNhjwkUoCCdCeENQLv8-] foundSubmit result: y9KpQHv8BNhjwkUoCCdCeENQLv8- has been confirmedTrack | CTDB Status 1 | (2/2) Accurately ripped 2 | (2/2) Accurately ripped 3 | (2/2) Accurately ripped 4 | (2/2) Accurately ripped 5 | (2/2) Accurately ripped 6 | (2/2) Accurately ripped 7 | (2/2) Accurately ripped 8 | (2/2) Accurately ripped 9 | (2/2) Accurately ripped 10 | (2/2) Accurately ripped
==== Log checksum 09BCB6E3756094854B3D1E9A111671C4EBB3AA06A892BAD182ADCB359036937C ====

Содержание индексной карты (.CUE)

REM GENRE JazzREM DATE 2019REM DISCID 7C0AAA0AREM COMMENT "ExactAudioCopy v1.3"PERFORMER "May Okita"TITLE "Art of Life"FILE "01 - Let's Face the Music and Dance.wav" WAVE TRACK 01 AUDIO TITLE "Let's Face the Music and Dance" PERFORMER "May Okita" INDEX 01 00:00:00FILE "02 - Both Sides Now.wav" WAVE TRACK 02 AUDIO TITLE "Both Sides Now" PERFORMER "May Okita" INDEX 01 00:00:00FILE "03 - Detour Ahead.wav" WAVE TRACK 03 AUDIO TITLE "Detour Ahead" PERFORMER "May Okita" INDEX 01 00:00:00FILE "04 - Art of Life.wav" WAVE TRACK 04 AUDIO TITLE "Art of Life" PERFORMER "May Okita" INDEX 01 00:00:00FILE "05 - Blue Rose.wav" WAVE TRACK 05 AUDIO TITLE "Blue Rose" PERFORMER "May Okita" INDEX 01 00:00:00FILE "06 - When She Loved Me.wav" WAVE TRACK 06 AUDIO TITLE "When She Loved Me" PERFORMER "May Okita" INDEX 01 00:00:00FILE "07 - Some Other Time.wav" WAVE TRACK 07 AUDIO TITLE "Some Other Time" PERFORMER "May Okita" INDEX 01 00:00:00FILE "08 - Smile.wav" WAVE TRACK 08 AUDIO TITLE "Smile" PERFORMER "May Okita" INDEX 01 00:00:00FILE "09 - What a Difference a Day Made.wav" WAVE TRACK 09 AUDIO TITLE "What a Difference a Day Made" PERFORMER "May Okita" INDEX 01 00:00:00FILE "10 - Ev'ry Time We Say Goodbye.wav" WAVE TRACK 10 AUDIO TITLE "Ev'ry Time We Say Goodbye" PERFORMER "May Okita" INDEX 01 00:00:00

Отчет CUETools

[CUETools log; Date: 21.06.2019 18:04:37; Version: 2.1.6][CTDB TOCID: y9KpQHv8BNhjwkUoCCdCeENQLv8-] found.Track | CTDB Status 1 | (3/3) Accurately ripped 2 | (3/3) Accurately ripped 3 | (3/3) Accurately ripped 4 | (3/3) Accurately ripped 5 | (3/3) Accurately ripped 6 | (3/3) Accurately ripped 7 | (3/3) Accurately ripped 8 | (3/3) Accurately ripped 9 | (3/3) Accurately ripped 10 | (3/3) Accurately ripped[AccurateRip ID: 00115461-008ac5ec-7c0aaa0a] found.Track [ CRC | V2 ] Status 01 [de2f7003|e3f0d13a] (0+2/2) Accurately ripped 02 [ad35fe6b|6aceebd7] (0+2/2) Accurately ripped 03 [f172b908|aa094693] (0+2/2) Accurately ripped 04 [5c1a1df4|1a0cab3d] (0+2/2) Accurately ripped 05 [da122fc3|ed79dd61] (0+2/2) Accurately ripped 06 [7404a1f6|d1f3468a] (0+2/2) Accurately ripped 07 [7288a35b|185c48ce] (0+2/2) Accurately ripped 08 [dcb70e59|a54dc8bc] (0+2/2) Accurately ripped 09 [0826728c|d9a47bc0] (0+2/2) Accurately ripped 10 [79aff327|4cb4faef] (0+2/2) Accurately ripped
Track Peak [ CRC32 ] [W/O NULL] [ LOG ] -- 97,7 [99C2D4ED] [DDB41643] 01 97,7 [CAA3BC4F] [D32DCC7A] CRC32 02 97,7 [2F7F2908] [F39D7C63] CRC32 03 93,9 [F8A7D960] [49A5E451] CRC32 04 97,7 [311B7108] [E5E2C94C] CRC32 05 97,7 [7D478CE3] [D6CDA12D] CRC32 06 97,7 [6CDC0D69] [AA607FFB] CRC32 07 97,7 [C09C1A0B] [38BF0E3D] CRC32 08 97,7 [9D89D156] [B9D7A712] CRC32 09 97,7 [B377FC10] [97F05527] CRC32 10 90,9 [1FE96160] [D0D39552] CRC32

Об альбоме (сборнике)

Japanese vocalist May Okita recently departed Los Angeles where she spent several years developing her musical voice with some of the finest mentors and musical partners in jazz. Before moving back to Tokyo, she recorded this deeply personal album with two particularly inspirational and empathetic musicians: pianist Josh Nelson and guitarist Larry Koonse. Together, they explore many of the subtleties of the human heart - pleasure, sorrow, passion, calmness - her sonorous and poignant voice floating effortlessly over the Bernstein/Comden gem "Some Other Time," the Joni Mitchell classic "Both Sides Now," the Lou Carter, Herb Ellis, Johnny Frigo beauty "Detour Ahead," or May and Josh's own title song. "Art of Life" is a heartfelt debut for a promising new voice.
[ho-ho-torrent.biz]_t_5747257
Torrent: Registered ·  [ 2019-06-24 02:14 ] ·  687263332eca16d96599f1f19aa7cf1caafff9eb

18 KB

Status: checked
Completed: 1 times
Size: 209 MB
Rating: 
(Votes: 0)
Say thanks: 0  Thanks
 
Похожие темы
[Profile] [PM]
Display posts from previous:    
Reply to topic

The time now is: Today 21:32

All times are GMT + 7 Hours



You cannot post new topics in this forum
You cannot reply to topics in this forum
You cannot edit your posts in this forum
You cannot delete your posts in this forum
You cannot vote in polls in this forum
You cannot attach files in this forum
You can download files in this forum