Register · 
Username: Password:
 ·  Forgot password?

(Blues) [CD] Mishouris Blues Band - I Got Money - 2017, FLAC (image+.cue), lossless

Reply to topic
DL-List and Torrent activity [Update пиров]
Size:  435 MB   |    Registered:  6 months 10 days   |    Completed:  1 time

Seeder not seen: 2 months

 
   
 
 
 
Author Message

god56 ®

Gender:

Longevity: 6 years 2 months

Posts: 25419

Post 05-Jun-2019 13:32

[Quote]

Mishouris Blues Band - I Got Money
Жанр: Blues
Носитель: CD
Страна-производитель диска (релиза): Россия
Год издания: 2017
Издатель (лейбл): self released
Страна исполнителя (группы): Россия
Аудиокодек: FLAC (*.flac)
Тип рипа: image+.cue
Продолжительность: 00:59:05
Источник: собственный рип
Наличие сканов в содержимом раздачи: да
Треклист:
01. I Got Money
02. Material Love Boogie
03. Aces, Kings & Queens
04. It's Nothin' But a Shame
05. Empty Bottle Blues
06. Big River (You're Calling Me Back Home)
07. Burn With A Fever Of Love
08. Girl From San Francisco
09. On The Bottom
10. Love Train Girl
11. Pablo
12. Last Day Tomorrow
13. On The Bottom (dub remix)

Лог создания рипа

Exact Audio Copy V1.3 from 2. September 2016
Отчёт EAC об извлечении, выполненном 24. мая 2019, 14:48
Mishouris Blues Band / I Got Money
Дисковод: ASUS DRW-24B3ST Adapter: 1 ID: 0
Режим чтения : ДостоверностьИспользование точного потока : ДаОтключение кэша аудио : ДаИспользование указателей C2 : Нет
Коррекция смещения при чтении : 6Способность читать области Lead-in и Lead-out : НетЗаполнение пропущенных сэмплов тишиной : ДаУдаление блоков с тишиной в начале и конце : НетПри вычислениях CRC использовались нулевые сэмплы : ДаИнтерфейс : Встроенный Win32-интерфейс для Win NT/2000
Выходной формат : Пользовательский кодировщикВыбранный битрейт : 1024 kBit/sКачество : ВысокийДобавление ID3-тега : НетУтилита сжатия : C:\Program Files (x86)\Exact Audio Copy\Flac\flac.exeДополнительные параметры : -V -8 -T "Date=%year%" -T "Genre=%genre%" %source%
TOC извлечённого CD
Трек | Старт | Длительность | Начальный сектор | Конечный сектор --------------------------------------------------------------------- 1 | 0:00.00 | 3:38.49 | 0 | 16398 2 | 3:38.49 | 4:13.23 | 16399 | 35396 3 | 7:51.72 | 4:51.64 | 35397 | 57285 4 | 12:43.61 | 3:54.42 | 57286 | 74877 5 | 16:38.28 | 4:16.45 | 74878 | 94122 6 | 20:54.73 | 5:31.68 | 94123 | 119015 7 | 26:26.66 | 5:46.04 | 119016 | 144969 8 | 32:12.70 | 3:56.35 | 144970 | 162704 9 | 36:09.30 | 2:55.67 | 162705 | 175896 10 | 39:05.22 | 4:20.58 | 175897 | 195454 11 | 43:26.05 | 4:20.16 | 195455 | 214970 12 | 47:46.21 | 7:21.30 | 214971 | 248075 13 | 55:07.51 | 3:56.70 | 248076 | 265845
Характеристики диапазона извлечения и сообщения об ошибках
Выбранный диапазон
Имя файла E:\Torrents-seed\Mishouris Blues Band - 2017 - I Got Money\Mishouris Blues Band - I Got Money.wav
Пиковый уровень 100.0 % Скорость извлечения 9.0 X Качество диапазона 100.0 % CRC теста FE9304F9 CRC копии FE9304F9 Копирование... OK
Ошибок не произошло
AccurateRip: сводка
Трек 1 отсутствует в базе данныхТрек 2 отсутствует в базе данныхТрек 3 отсутствует в базе данныхТрек 4 отсутствует в базе данныхТрек 5 отсутствует в базе данныхТрек 6 отсутствует в базе данныхТрек 7 отсутствует в базе данныхТрек 8 отсутствует в базе данныхТрек 9 отсутствует в базе данныхТрек 10 отсутствует в базе данныхТрек 11 отсутствует в базе данныхТрек 12 отсутствует в базе данныхТрек 13 отсутствует в базе данных
Ни одного трека нет в базе AccurateRip
Конец отчёта
==== Контрольная сумма отчёта B087260A0072275B531B8CEE4A62DEE7EAE8856889D81E35B16ADBC9EFE27C8E ====

Содержание индексной карты (.CUE)

REM GENRE BluesREM DATE 2017REM DISCID AE0DD80DREM COMMENT "ExactAudioCopy v1.3"PERFORMER "Mishouris Blues Band"TITLE "I Got Money"REM COMPOSER ""FILE "Mishouris Blues Band - I Got Money.flac" WAVE TRACK 01 AUDIO TITLE "I Got Money" PERFORMER "Mishouris Blues Band" REM COMPOSER "" INDEX 01 00:00:00 TRACK 02 AUDIO TITLE "Material Love Boogie" PERFORMER "Mishouris Blues Band" REM COMPOSER "" INDEX 01 03:38:49 TRACK 03 AUDIO TITLE "Aces, Kings & Queens" PERFORMER "Mishouris Blues Band" REM COMPOSER "" INDEX 01 07:51:72 TRACK 04 AUDIO TITLE "It's Nothing But A Shame" PERFORMER "Mishouris Blues Band" REM COMPOSER "" INDEX 01 12:43:61 TRACK 05 AUDIO TITLE "Empty Bottle Blues" PERFORMER "Mishouris Blues Band" REM COMPOSER "" INDEX 01 16:38:28 TRACK 06 AUDIO TITLE "Big River (You're Calling Me Back Home)" PERFORMER "Mishouris Blues Band" REM COMPOSER "" INDEX 01 20:54:73 TRACK 07 AUDIO TITLE "Burn With A Fever Of Love" PERFORMER "Mishouris Blues Band" REM COMPOSER "" INDEX 01 26:26:66 TRACK 08 AUDIO TITLE "Girl From San Francisco" PERFORMER "Mishouris Blues Band" REM COMPOSER "" INDEX 01 32:12:70 TRACK 09 AUDIO TITLE "On The Bottom" PERFORMER "Mishouris Blues Band" REM COMPOSER "" INDEX 01 36:09:30 TRACK 10 AUDIO TITLE "Love Train Girl" PERFORMER "Mishouris Blues Band" REM COMPOSER "" INDEX 01 39:05:22 TRACK 11 AUDIO TITLE "Pablo" PERFORMER "Mishouris Blues Band" REM COMPOSER "" INDEX 01 43:26:05 TRACK 12 AUDIO TITLE "Last Day Tomorrow" PERFORMER "Mishouris Blues Band" REM COMPOSER "" INDEX 01 47:46:21 TRACK 13 AUDIO TITLE "On The Bottom (dub remix)" PERFORMER "Mishouris Blues Band" REM COMPOSER "" INDEX 01 55:07:51

Замер динамического диапазона (DRM)

foobar2000 1.3.17 / Dynamic Range Meter 1.1.1log date: 2019-05-24 14:50:04
--------------------------------------------------------------------------------Analyzed: Mishouris Blues Band / I Got Money--------------------------------------------------------------------------------
DR Peak RMS Duration Track--------------------------------------------------------------------------------DR10 0.00 dB -11.64 dB 3:39 01-I Got MoneyDR9 0.00 dB -10.98 dB 4:13 02-Material Love BoogieDR10 -0.19 dB -12.54 dB 4:52 03-Aces, Kings & QueensDR10 -0.14 dB -11.66 dB 3:55 04-It's Nothing But A ShameDR11 -0.04 dB -12.57 dB 4:17 05-Empty Bottle BluesDR11 0.00 dB -12.83 dB 5:32 06-Big River (You're Calling Me Back Home)DR11 -0.10 dB -12.18 dB 5:46 07-Burn With A Fever Of LoveDR11 0.00 dB -12.41 dB 3:56 08-Girl From San FranciscoDR12 0.00 dB -13.64 dB 2:56 09-On The BottomDR10 0.00 dB -11.97 dB 4:21 10-Love Train GirlDR10 0.00 dB -11.33 dB 4:20 11-PabloDR11 0.00 dB -11.91 dB 7:21 12-Last Day TomorrowDR7 -3.01 dB -12.73 dB 3:57 13-On The Bottom (dub remix)--------------------------------------------------------------------------------
Number of tracks: 13Official DR value: DR10
Samplerate: 44100 HzChannels: 2Bits per sample: 16Bitrate: 946 kbpsCodec: FLAC================================================================================

Об альбоме (сборнике)

http://www.discogs.com/artist/2208880-Mishouris-Blues-Band
[ho-ho-torrent.biz]_t_5737700
Torrent: Registered ·  [ 2019-06-05 13:26 ] ·  e60cdc615737cd7ea18f31d02c2567676523fb65

18 KB

Status: checked
Completed: 1 times
Size: 435 MB
Rating: 
(Votes: 0)
Say thanks: 0  Thanks
 
Похожие темы
[Profile] [PM]
Display posts from previous:    
Reply to topic

The time now is: Today 21:18

All times are GMT + 7 Hours



You cannot post new topics in this forum
You cannot reply to topics in this forum
You cannot edit your posts in this forum
You cannot delete your posts in this forum
You cannot vote in polls in this forum
You cannot attach files in this forum
You can download files in this forum