Register · 
Username: Password:
 ·  Forgot password?

Najoua Belyzel - Ma Sainte-Nitouche [2009, Electro, Europop, Chanson, SATRip]

Reply to topic
DL-List and Torrent activity [Update пиров]
Size:  129 MB   |    Registered:  1 year 2 months   |    Completed:  0 times

Seeder not seen: Never

 
   
 
 
 
Author Message

Dimas28 ®

Gender:

Longevity: 6 years 5 months

Posts: 23972

Post 06-Dec-2018 02:19

[Quote]


Najoua Belyzel
Ma Sainte-Nitouche

Страна: France
Жанр: Electro, Europop, Chanson
Продолжительность: 00:03:18
Год выпуска: 2009
Качество: SATRip
Контейнер: MPG
Видео кодек: MPEG2
Аудио кодек: MP2
Видео: MPEG Video, 720 пикселей x 576 пикселей, 16:9, 25,000 кадров/сек, 5112 Кбит/сек
Аудио: MPEG Audio, 48,0 КГц, 2 канала, 256 Кбит/сек
иcточник: ушедшая в архив раздача

MediaInfo

Общее
Полное имя : C:\torrents\Music Video\Najoua Belyzel\Najoua Belyzel [2009] Ma Sainte-Nitouche.mpg
Формат : MPEG-PS
Размер файла : 129 Мбайт
Продолжительность : 3 м. 18 с.
Режим общего битрейта : Переменный
Общий поток : 5477 Кбит/сек
Видео
Идентификатор : 224 (0xE0)
Формат : MPEG Video
Версия формата : Version 2
Профиль формата : Main@Main
Настройки формата : CustomMatrix / BVOP
Параметр BVOP формата : Да
Параметр матрицы формата : Выборочная
Параметр GOP формата : Variable
Структура изображения : Frame
Продолжительность : 3 м. 18 с.
Вид битрейта : Переменный
Битрейт : 5112 Кбит/сек
Максимальный битрейт : 15,0 Мбит/сек
Ширина : 720 пикселей
Высота : 576 пикселей
Соотношение сторон : 16:9
Частота кадров : 25,000 кадров/сек
Стандарт вещания : PAL
Цветовое пространство : YUV
Субдискретизация насыщенности : 4:2:0
Битовая глубина : 8 бит
Тип развёртки : Чересстрочная
Порядок развёртки : Верхнее поле первое
Метод сжатия : С потерями
Бит/(Пиксели*Кадры) : 0.493
Временной код первого кадра : 00:00:00:00
Оригинал временного кода : Group of pictures header
GOP, открыто/закрыто : Открыто
GOP, открыто/закрыто на первом кадре : Закрыто
Размер потока : 121 Мбайт (93%)
Аудио
Идентификатор : 192 (0xC0)
Формат : MPEG Audio
Версия формата : Version 1
Профиль формата : Layer 2
Продолжительность : 3 м. 18 с.
Вид битрейта : Постоянный
Битрейт : 256 Кбит/сек
Каналы : 2 канала
Частота : 48,0 КГц
Частота кадров : 41,667 кадра/сек (1152 SPF)
Метод сжатия : С потерями
Размер потока : 6,04 Мбайт (5%)

Скриншоты

[ho-ho-torrent.biz]_t_5566371
Torrent: Registered ·  [ 2018-12-06 02:19 ] ·  4a1d989432647063b067a697d757ada24bf91e78

11 KB

Status: checked
Completed: 0 times
Size: 129 MB
Rating: 
(Votes: 0)
Say thanks: 0  Thanks
 
Похожие темы
[Profile] [PM]
Display posts from previous:    
Reply to topic

The time now is: Today 23:33

All times are GMT + 7 Hours



You cannot post new topics in this forum
You cannot reply to topics in this forum
You cannot edit your posts in this forum
You cannot delete your posts in this forum
You cannot vote in polls in this forum
You cannot attach files in this forum
You can download files in this forum