Register · 
Username: Password:
 ·  Forgot password?

[TR24][SACD-R] Nine Inch Nails - The Downward Spiral (Deluxe edition) - 1994 / 2004 (Industrial)

Reply to topic
DL-List and Torrent activity [Update пиров]
Size:  4.73 GB   |    Registered:  1 month 21 day   |    Completed:  0 times

Seeder not seen: Never

 
   
 
 
 
Author Message

Andrew1225 ®

Gender:

Longevity: 6 years 3 months

Posts: 17482

Post 27-Nov-2019 00:51

[Quote]

Nine Inch Nails / The Downward Spiral
Формат записи/Источник записи: [TR24][SACD-R]
Наличие водяных знаков: Нет
Издание: Deluxe edition
Год издания/переиздания диска: 1994 / 2004
Жанр: Industrial
Издатель (лейбл): Nothing Records ‎– 0602498647288
Продолжительность: 02:15:50
Наличие сканов в содержимом раздачи: Нет
Треклист:

Disc 1 The Downward Spiral (5.1)

01. Mr. Self Destruct 04:30
02. Piggy 04:24
03. Heresy 03:54
04. March Of The Pigs 02:58
05. Closer 06:13
06. Ruiner 04:59
07. The Becoming 05:31
08. I Do Not Want This 05:41
09. Big Man With A Gun 01:36
10. A Warm Place 03:22
11. Eraser 04:54
12. Reptile 06:52
13. The Downward Spiral 03:57
14. Hurt 06:13

Disc 2 Demos And Non Album Tracks (2.0)

01. Burn – Soundtrack Version (Explicit) 05:00
02. Closer (Precursor) 07:17
03. Piggy (Nothing Can Stop Me Now) 04:03
04. A Violet Fluid 01:04
05. Dead Souls 04:53
06. Hurt (Quiet) 05:09
07. Closer To God 05:06
08. All The Pigs, All Lined Up 07:26
09. Memorabilia 07:22
10. The Downward Spiral (The Bottom) 07:33
11. Ruiner – Demo 04:52
12. Liar – Reptile Demo 06:58
13. Heresy – Demo 04:00
Контейнер: FLAC (*.flac)
Тип рипа: tracks
Разрядность: 24/88,2
Формат: 5.1 Surround, PCM
Количество каналов: 5.1, 2.0

Лог проверки качестваCD 1

foobar2000 1.3.2 / Dynamic Range Meter 1.1.1log date: 2014-06-12 12:06:31
--------------------------------------------------------------------------------Analyzed: Nine Inch Nails / The Downward Spiral [2004 Deluxe Edition]--------------------------------------------------------------------------------
DR Peak RMS Duration Track--------------------------------------------------------------------------------DR10 -0.17 dB -13.26 dB 4:41 01-Mr. Self DestructDR14 -0.27 dB -16.41 dB 4:23 02-PiggyDR10 -0.22 dB -11.49 dB 3:54 03-HeresyDR10 -0.44 dB -12.68 dB 2:59 04-March of the PigsDR11 -1.12 dB -13.06 dB 6:13 05-CloserDR9 -0.33 dB -12.00 dB 5:01 06-RuinerDR11 -0.01 dB -13.88 dB 5:30 07-The BecomingDR10 -0.21 dB -13.12 dB 5:41 08-I Do Not Want ThisDR6 -0.14 dB -8.69 dB 1:36 09-Big Man with a GunDR10 -0.46 dB -13.33 dB 3:22 10-A Warm PlaceDR11 -0.44 dB -12.67 dB 4:43 11-EraserDR11 -0.37 dB -13.07 dB 6:52 12-ReptileDR10 -0.41 dB -13.85 dB 3:47 13-The Downward SpiralDR13 -0.45 dB -18.77 dB 5:47 14-Hurt--------------------------------------------------------------------------------
Number of tracks: 14Official DR value: DR10
Samplerate: 88200 HzChannels: 6Bits per sample: 24Bitrate: 6657 kbpsCodec: FLAC================================================================================

CD 2

foobar2000 1.3.2 / Dynamic Range Meter 1.1.1log date: 2014-06-12 12:08:43
--------------------------------------------------------------------------------Analyzed: Nine Inch Nails / The Downward Spiral [2004 Deluxe Edition]--------------------------------------------------------------------------------
DR Peak RMS Duration Track--------------------------------------------------------------------------------DR5 -1.15 dB -8.76 dB 5:00 01-Burn - Soundtrack Version [Explicit]DR11 -0.01 dB -12.99 dB 7:17 02-Closer [Precursor]DR5 -1.31 dB -9.87 dB 4:02 03-Piggy [Nothing Can Stop Me Now]DR8 -1.11 dB -9.62 dB 1:04 04-A Violet FluidDR6 -0.74 dB -9.33 dB 4:53 05-Dead SoulsDR7 -1.10 dB -12.49 dB 5:09 06-Hurt [Quiet]DR6 -1.26 dB -10.00 dB 5:06 07-Closer to GodDR5 -0.95 dB -8.55 dB 7:26 08-All the Pigs, All Lined UpDR7 -1.27 dB -10.58 dB 7:22 09-MemorabiliaDR7 -1.28 dB -11.62 dB 7:29 10-The Downward Spiral [The Bottom]DR7 -0.88 dB -9.93 dB 4:50 11-Ruiner [Demo]DR6 -0.83 dB -8.79 dB 6:56 12-Liar [Reptile Demo]DR6 -0.13 dB -7.46 dB 4:00 13-Heresy [Demo]--------------------------------------------------------------------------------
Number of tracks: 13Official DR value: DR7
Samplerate: 88200 HzChannels: 2Bits per sample: 24Bitrate: 2839 kbpsCodec: FLAC================================================================================

Скриншот спектра частотCD 1



CD 2



Источник (релизер): Usenet
[ho-ho-torrent.biz]_t_5811168
Torrent: Registered ·  [ 2019-11-27 00:51 ] ·  dabde5e23799fa3e12ecad6795e2754cae864231

16 KB

Status: checked
Completed: 0 times
Size: 4.73 GB
Rating: 
(Votes: 0)
Say thanks: 0  Thanks
 
Похожие темы
[Profile] [PM]
Display posts from previous:    
Reply to topic

The time now is: Today 20:13

All times are GMT + 7 Hours



You cannot post new topics in this forum
You cannot reply to topics in this forum
You cannot edit your posts in this forum
You cannot delete your posts in this forum
You cannot vote in polls in this forum
You cannot attach files in this forum
You can download files in this forum