Register · 
Username: Password:
 ·  Forgot password?

Параноик / Paranoiac (Фредди Фрэнсис / Freddie Francis) [1963, Великобритания, Триллер, драма, BDRip] VO (Герусов) + Original Eng + Sub (Rus, Eng)

Reply to topic
DL-List and Torrent activity [Update пиров]
Size:  1.46 GB   |    Registered:  4 months 14 days   |    Completed:  1 time

Seeder not seen: 3 months 30 days

 
   
 
 
 
Author Message

Andrew1225 ®

Gender:

Longevity: 6 years 6 months

Posts: 18613

Post 20-Nov-2019 23:49

[Quote]

Параноик
Paranoiac-- Страна: Великобритания
Жанр: Триллер, ужасы, драма
Год выпуска: 1963
Продолжительность: 1:20:05-Перевод и озвучание: Одноголосый закадровый Герусов
Субтитры: русские, английские-Режиссер: Фредди Фрэнсис (Freddie Francis)
В ролях:
Джанетт Скотт (Элеонора Эшби),
Оливер Рид (Саймон Эшби),
Шила Баррелл (Тётя Хэрриет),
Морис Денэм (Джон Коссетт),
Александр Давион (Тони Эшби),
Лилиан Брусс (Франсуаза)
и другие-Описание:
Всего три недели отделяют психопатичного Саймона Эшби от получения вожделенного наследства своих родителей, погибших в авиакатастрофе. Но внезапно все его планы перечёркивает появившийся из ниоткуда брат Тони, покончивший жизнь самоубийством 8 лет назад...Герусов)-Доп. информация:
Полки наследия Хаммер продолжают радовать посвящённого зрителя :). Предлагаю вашему вниманию отличный "психотриллер" от студии Хаммер, фильм, снятый в стилистике фильма "Психо". Любителей не оставят равнодушными прекрасные актёрские работы, в первую очередь, конечно же, Оливера Рида и Александра Давиона. Режиссура Фредди Фрэнсиса и операторская работа Артура Гранта тоже, как всегда, на высоте. Это вольная экранизация романа Джозефины Тэй "Мистификация" (в оригинале "Брет Фаррар"), о чём, кстати, студия Хаммер в титрах не посчитала нужным сообщить. Enjoy!
Внимание, торрент перезалит 20.11.2019 в 17.40 мск в связи с заменой DVDRip на BDRip, добавлением оригинальной английской дорожки, английских и русских субтитров, улучшением звучания русской дорожки при помощи обработки и нормализации "чистого голоса" с последующим пересведением с оригинальной дорожкой. Скрины, сэмпл и MI заменены. Прошу перескачать торрент-файл. -
Качество: BDRip
(источник Paranoiac [Hammer] [BluRay/Untouched] [UK] [1963/BDRIP] от Faringo (cinemageddon)
Формат: AVI
Видео: 720x304 (2.35:1), 23.976 fps, XVID, 2206 kbps avg, 0.420 bit/pixel
Аудио 1: 48 kHz, AC3, 2 ch, СBR 192.00 kbps | (русский VO Герусов)
Аудио 2: 48 kHz, AC3, 2 ch, СBR 192.00 kbps | (оригинальная итальянская дорожка)
Формат субтитров: softsub (SRT, кодировка Unicode (UTF-8), автор © Герусов

MediaInfo

ОбщееПолное имя : 31.Paranoik.(Paranoiac.1963).BDRip.XviD.Dual.AC3_OIN.aviФормат : AVIФормат/Информация : Audio Video InterleaveРазмер файла : 1,46 ГбайтПродолжительность : 1 ч. 20 м.Общий поток : 2605 Кбит/секПрограмма кодирования : VirtualDubMod 1.5.10.2 (build 2540/release)Библиотека кодирования : VirtualDubMod build 2540/release
ВидеоИдентификатор : 0Формат : MPEG-4 VisualПрофиль формата : Advanced Simple@L5Настройки формата : BVOP1Параметр BVOP формата : 1Параметр QPel формата : НетПараметр GMC формата : Без точки переходаПараметр матрицы формата : Default (MPEG)Идентификатор кодека : XVIDИдентификатор кодека/Подсказка : XviDПродолжительность : 1 ч. 20 м.Битрейт : 2206 Кбит/секШирина : 720 пикселейВысота : 304 пикселяСоотношение сторон : 2,35:1Частота кадров : 23,976 (24000/1001) кадра/секЦветовое пространство : YUVСубдискретизация насыщенности : 4:2:0Битовая глубина : 8 битТип развёртки : ПрогрессивнаяМетод сжатия : С потерямиБит/(Пиксели*Кадры) : 0.420Размер потока : 1,23 Гбайт (85%)Библиотека кодирования : XviD 1.2.1 (UTC 2008-12-04)
Аудио #1Идентификатор : 1Формат : AC-3Формат/Информация : Audio Coding 3Коммерческое название : Dolby DigitalИдентификатор кодека : 2000Продолжительность : 1 ч. 20 м.Вид битрейта : ПостоянныйБитрейт : 192 Кбит/секКаналы : 2 каналаChannelLayout : L RЧастота : 48,0 КГцЧастота кадров : 31,250 кадров/сек (1536 SPF)Метод сжатия : С потерямиРазмер потока : 110 Мбайт (7%)Выравнивание : Разделение по промежуткамПродолжительность промежутка : 42 мс. (1,00 видеокадр)Время предзагрузки промежутка : 500 мс.Заголовок : Russian VO (Gerusov)ServiceKind/String : Complete Main
Аудио #2Идентификатор : 2Формат : AC-3Формат/Информация : Audio Coding 3Коммерческое название : Dolby DigitalИдентификатор кодека : 2000Продолжительность : 1 ч. 20 м.Вид битрейта : ПостоянныйБитрейт : 192 Кбит/секКаналы : 2 каналаChannelLayout : L RЧастота : 48,0 КГцЧастота кадров : 31,250 кадров/сек (1536 SPF)Метод сжатия : С потерямиРазмер потока : 110 Мбайт (7%)Выравнивание : Разделение по промежуткамПродолжительность промежутка : 42 мс. (1,00 видеокадр)Время предзагрузки промежутка : 500 мс.Заголовок : English originalServiceKind/String : Complete Main
Мои раздачи раритетов Хаммер [url=tracker.php?nm=%D0%9F%D0%BE%D1%81%D0%BB%D0%B5%D0%B4%D0%BD%D1%8F%D1%8F%20%D1%81%D1%82%D1%80%D0%B0%D0%BD%D0%B8%D1%86%D0%B0%20Oneinchnales] Последняя страница (1952)[/url]
Четырехсторонний треугольник (1953)
Эксперимент Куотермасса (1955)
[url=tracker.php?nm=The%20Curse%20of%20Frankenstein%20Oneinchnales] Проклятие Франкенштейна (1957)[/url]
[url=tracker.php?nm=The%20Snorkel%201958%20Oneinchnales] Дыхательная трубка (1958)[/url]
Вчерашний враг (1959)
Человек, обманувший смерть (1959)
[url=tracker.php?nm=Hell%20is%20a%20City%20Oneinchnales] Адский город (1960)[/url]
Два лица доктора Джекила (1960)
Тень кошки (1961)
Проклятие оборотня (1961)
[url=tracker.php?nm=Наличные%20по%20требованию%201961%20Oneinchnales] Наличные по требованию (1961)[/url]
Призрак оперы (1962)
Проклятые (1963)
[url=tracker.php?nm=Kiss%20of%20the%20Vampire%201963%20oneinchnales] Поцелуй вампира (1963)[/url]
[url=tracker.php?nm=Параноик%20Oneinchnales] Параноик (1963)[/url]
Дьявольский пиратский корабль (1964)
Ночной кошмар (1964)
Ужас Франкенштейна (1970)
Доктор Джекилл и сестра Хайд (1971)
Страх в ночи (1972)
Звёзды "Хаммер": Интервью с Вероникой Карлсон
Мир студии Хаммер (1990)--
Все материалы оригинальные © Ссылка на авторство обязательна
[ho-ho-torrent.biz]_t_4690870
Torrent: Registered ·  [ 2019-11-20 23:49 ] ·  c46967f52913ea99c36636551544d338bd1ebff0

30 KB

Status: checked
Completed: 1 times
Size: 1.46 GB
Rating: 
(Votes: 0)
Say thanks: 0  Thanks
 
Похожие темы
[Profile] [PM]
Display posts from previous:    
Reply to topic

The time now is: Today 16:16

All times are GMT + 7 Hours



You cannot post new topics in this forum
You cannot reply to topics in this forum
You cannot edit your posts in this forum
You cannot delete your posts in this forum
You cannot vote in polls in this forum
You cannot attach files in this forum
You can download files in this forum