Register · 
Username: Password:
 ·  Forgot password?

(Symphonic Metal) [CD] Tales Of Evening - A New Dawn Awaits - 2019, FLAC (image+.cue), lossless

Reply to topic
DL-List and Torrent activity [Update пиров]
Size:  486 MB   |    Registered:  4 months 26 days   |    Completed:  0 times

Seeder not seen: Never

 
   
 
 
 
Author Message

Makci ®

Gender:

Longevity: 6 years 6 months

Posts: 13582

Post 08-Nov-2019 19:25

[Quote]


A New Dawn Awaits


Жанр: Symphonic Metal
Носитель: CD
Страна-производитель диска (релиза): Hungary
Год издания: 2019
Издатель (лейбл): Nail Records
Номер по каталогу: NAILCD305
Страна исполнителя (группы): Hungary
Аудиокодек: FLAC (*.flac)
Тип рипа: image+.cue
Продолжительность: 01:03:01
Источник: собственный рип
Наличие сканов в содержимом раздачи: да


01. Torn Apart
02. Miracle Of Mine
03. Winds Will Rise
04. Shelterless Soul
05. Dreaming Again
06. Delusion
07. Out Of Reach
08. Rebellious Soul
09. Wasted
10. Halls Of Peace
11. Eye Of The Storm
12. The Life I Had
13. Flower Of Frost
14. Jegvilag

Лог создания рипа

Exact Audio Copy V1.3 from 2. September 2016
EAC extraction logfile from 7. November 2019, 13:56
Tales Of Evening / A New Dawn Awaits
Used drive : PIONEER BD-RW BDR-209D Adapter: 1 ID: 1
Read mode : SecureUtilize accurate stream : YesDefeat audio cache : YesMake use of C2 pointers : No
Read offset correction : 667Overread into Lead-In and Lead-Out : NoFill up missing offset samples with silence : YesDelete leading and trailing silent blocks : NoNull samples used in CRC calculations : YesUsed interface : Native Win32 interface for Win NT & 2000
Used output format : User Defined EncoderSelected bitrate : 1024 kBit/sQuality : HighAdd ID3 tag : YesCommand line compressor : C:\Program Files (x86)\Exact Audio Copy\FLAC\FLAC.EXEAdditional command line options : -V -8 -T "Date=%year%" -T "Genre=%genre%" %source%
TOC of the extracted CD
Track | Start | Length | Start sector | End sector --------------------------------------------------------- 1 | 0:00.00 | 5:02.13 | 0 | 22662 2 | 5:02.13 | 4:25.39 | 22663 | 42576 3 | 9:27.52 | 4:19.69 | 42577 | 62070 4 | 13:47.46 | 4:15.60 | 62071 | 81255 5 | 18:03.31 | 4:08.55 | 81256 | 99910 6 | 22:12.11 | 4:04.64 | 99911 | 118274 7 | 26:17.00 | 4:28.00 | 118275 | 138374 8 | 30:45.00 | 3:56.44 | 138375 | 156118 9 | 34:41.44 | 4:31.73 | 156119 | 176516 10 | 39:13.42 | 4:58.73 | 176517 | 198939 11 | 44:12.40 | 5:51.54 | 198940 | 225318 12 | 50:04.19 | 4:54.56 | 225319 | 247424 13 | 54:59.00 | 4:01.00 | 247425 | 265499 14 | 59:00.00 | 4:01.00 | 265500 | 283574
Range status and errors
Selected range
Filename F:\Tales Of Evening - 2019 - A New Dawn Awaits\Tales Of Evening - A New Dawn Awaits.wav
Peak level 97.1 % Extraction speed 7.7 X Range quality 100.0 % Test CRC 02BA451D Copy CRC 02BA451D Copy OK
No errors occurred
End of status report
---- CUETools DB Plugin V2.1.6
[CTDB TOCID: KLAno9k_NUcyJnP5r_NO0y3gIuM-] disk not present in databaseSubmit result: KLAno9k_NUcyJnP5r_NO0y3gIuM- has been uploaded
==== Log checksum 7A7752830830607EED84170AA59330F8EBF42A512CDF3CF8ADE7359E65E01A01 ====

Содержание индексной карты (.CUE)

REM GENRE MetalREM DATE 2019REM DISCID BE0EC50EREM COMMENT "ExactAudioCopy v1.3"PERFORMER "Tales Of Evening"TITLE "A New Dawn Awaits"REM COMPOSER "Tales Of Evening"FILE "Tales Of Evening - A New Dawn Awaits.flac" WAVE TRACK 01 AUDIO TITLE "Torn Apart" PERFORMER "Tales Of Evening" REM COMPOSER " " INDEX 01 00:00:00 TRACK 02 AUDIO TITLE "Miracle Of Mine" PERFORMER "Tales Of Evening" REM COMPOSER " " INDEX 01 05:02:13 TRACK 03 AUDIO TITLE "Winds Will Rise" PERFORMER "Tales Of Evening" REM COMPOSER " " INDEX 01 09:27:52 TRACK 04 AUDIO TITLE "Shelterless Soul" PERFORMER "Tales Of Evening" REM COMPOSER " " INDEX 01 13:47:46 TRACK 05 AUDIO TITLE "Dreaming Again" PERFORMER "Tales Of Evening" REM COMPOSER " " INDEX 01 18:03:31 TRACK 06 AUDIO TITLE "Delusion" PERFORMER "Tales Of Evening" REM COMPOSER " " INDEX 01 22:12:11 TRACK 07 AUDIO TITLE "Out Of Reach" PERFORMER "Tales Of Evening" REM COMPOSER " " INDEX 01 26:17:00 TRACK 08 AUDIO TITLE "Rebellious Soul" PERFORMER "Tales Of Evening" REM COMPOSER " " INDEX 01 30:45:00 TRACK 09 AUDIO TITLE "Wasted" PERFORMER "Tales Of Evening" REM COMPOSER " " INDEX 01 34:41:44 TRACK 10 AUDIO TITLE "Halls Of Peace" PERFORMER "Tales Of Evening" REM COMPOSER " " INDEX 01 39:13:42 TRACK 11 AUDIO TITLE "Eye Of The Storm" PERFORMER "Tales Of Evening" REM COMPOSER " " INDEX 01 44:12:40 TRACK 12 AUDIO TITLE "The Life I Had" PERFORMER "Tales Of Evening" REM COMPOSER " " INDEX 01 50:04:19 TRACK 13 AUDIO TITLE "Flower Of Frost" PERFORMER "Tales Of Evening" REM COMPOSER " " INDEX 01 54:59:00 TRACK 14 AUDIO TITLE "Jegvilag" PERFORMER "Tales Of Evening" REM COMPOSER " " INDEX 01 59:00:00
[ho-ho-torrent.biz]_t_5802232
Torrent: Registered ·  [ 2019-11-08 19:25 ] ·  f5985cdcb95513388778f3bcc93fadc80c304a10

20 KB

Status: checked
Completed: 0 times
Size: 486 MB
Rating: 
(Votes: 0)
Say thanks: 0  Thanks
 
Похожие темы
[Profile] [PM]
Display posts from previous:    
Reply to topic

The time now is: Today 16:22

All times are GMT + 7 Hours



You cannot post new topics in this forum
You cannot reply to topics in this forum
You cannot edit your posts in this forum
You cannot delete your posts in this forum
You cannot vote in polls in this forum
You cannot attach files in this forum
You can download files in this forum