Register · 
Username: Password:
 ·  Forgot password?

(Death/Doom Metal) [CD] VA - Tribute To Dissolving Of Prodigy - In Memory Of Fusaty - 2018, FLAC (image+.cue), lossless

Reply to topic
DL-List and Torrent activity [Update пиров]
Size:  503 MB   |    Registered:  1 year 6 months   |    Completed:  0 times

Seeder not seen: Never

 
   
 
 
 
Author Message

ANTON1404 ®

Gender:

Longevity: 6 years 3 months

Posts: 18859

Post 23-Jun-2018 00:50

[Quote]

Tribute To Dissolving Of Prodigy / In Memory Of Fusaty
[img=right]https://image.ibb.co/njYYNy/VA_Tribute_To_Dissolvin..._Cover.jpg[/img]
Жанр: Death/Doom Metal
Носитель: CD
Страна-производитель диска (релиза): Czech Republic
Год издания: 2018
Издатель (лейбл): Pařát Rock Metal Magazine
Номер по каталогу: PM 69
Страна исполнителя (группы): International
Аудиокодек: FLAC (*.flac)
Тип рипа: image+.cue
Битрейт аудио: lossless
Продолжительность: 1:14:15
Источник (релизер): собственный рип
Наличие сканов в содержимом раздачи: да
Треклист:
01. Contempty- Over the Grave of my Life (9:34)
02. Reaction Ecstasy Trance - Lovely (8:16)
03. Et Moriemur - Affliction (9:29)
04. Colosalist - Celebration of Trampled Flowers (4:48)
05. Doomas - Dívčí Válka (4:08)
06. After Rain - Bohu Nemilý (4:23)
07. Euthanasia - Rozmluva S Větrem (7:59)
08. Basic Torture Process - Zlatá Klec (3:45)
09. Self-Hatred - Zvon (5:21)
10. Dissolving Of Prodigy - Live in Ostrava (Benatky) 16.9. 1994 - Echoes of my Sadness/Save Me (16:33)

Info

Digibook & 16 Pages Booklet & Sew-on Patch DISSOLVING OF PRODIGYLimited Edition 300 pieces
01. Demo Bigotry "Step To The Grave"02. Demo "Echoes Of My Saness"03. Demo "Lamentations Of Innocents"04. Album "Time Ruins Also Beauty"05. Album "Loučení Se Světem Pozemským"06. Album "Loučení Se Světem Pozemským"07. Album "Štvanice"08. Album "Štvanice"09. Album "Štvanice"10. Live In Ostrava (Benátky) 16.9.1994
Буклет вклеен в диджипак, поэтому такие сканы получились..

Лог создания рипа

Exact Audio Copy V1.3 from 2. September 2016
EAC extraction logfile from 18. June 2018, 13:12
Tribute To Dissolving Of Prodigy / In Memory Of Fusaty
Used drive : ASUS DRW-1612BL Adapter: 2 ID: 0
Read mode : SecureUtilize accurate stream : YesDefeat audio cache : YesMake use of C2 pointers : No
Read offset correction : 6Overread into Lead-In and Lead-Out : NoFill up missing offset samples with silence : YesDelete leading and trailing silent blocks : NoNull samples used in CRC calculations : YesUsed interface : Installed external ASPI interface
Used output format : User Defined EncoderSelected bitrate : 128 kBit/sQuality : HighAdd ID3 tag : NoCommand line compressor : C:\Program Files\EAC\Exact Audio Copy\Flac\flac.exeAdditional command line options : -V -8 -T "Date=%year%" -T "Genre=%genre%" %source%
TOC of the extracted CD
Track | Start | Length | Start sector | End sector --------------------------------------------------------- 1 | 0:00.00 | 9:33.68 | 0 | 43042 2 | 9:33.68 | 8:15.48 | 43043 | 80215 3 | 17:49.41 | 9:28.56 | 80216 | 122871 4 | 27:18.22 | 4:47.50 | 122872 | 144446 5 | 32:05.72 | 4:07.72 | 144447 | 163043 6 | 36:13.69 | 4:22.56 | 163044 | 182749 7 | 40:36.50 | 7:58.68 | 182750 | 218667 8 | 48:35.43 | 3:45.17 | 218668 | 235559 9 | 52:20.60 | 5:20.39 | 235560 | 259598 10 | 57:41.24 | 16:33.24 | 259599 | 334097
Range status and errors
Selected range
Filename C:\darkbrides\Tribute To Dissolving Of Prodigy - In Memory Of Fusaty.wav
Peak level 100.0 % Extraction speed 8.9 X Range quality 100.0 % Test CRC 1FD75359 Copy CRC 1FD75359 Copy OK
No errors occurred
AccurateRip summary
Track 1 not present in databaseTrack 2 not present in databaseTrack 3 not present in databaseTrack 4 not present in databaseTrack 5 not present in databaseTrack 6 not present in databaseTrack 7 not present in databaseTrack 8 not present in databaseTrack 9 not present in databaseTrack 10 not present in database
None of the tracks are present in the AccurateRip database
End of status report
---- CUETools DB Plugin V2.1.6
[CTDB TOCID: 74.BKiRNfIbbjhaWYnjoLgy9yuo-] foundSubmit result: 74.BKiRNfIbbjhaWYnjoLgy9yuo- has been confirmedTrack | CTDB Status 1 | (2/2) Accurately ripped 2 | (2/2) Accurately ripped 3 | (2/2) Accurately ripped 4 | (2/2) Accurately ripped 5 | (2/2) Accurately ripped 6 | (2/2) Accurately ripped 7 | (2/2) Accurately ripped 8 | (2/2) Accurately ripped 9 | (2/2) Accurately ripped 10 | (2/2) Accurately ripped
==== Log checksum 6E6C17F31EFDE916AAEA6633731A3DAC15837E730A7A3584397ACD7319D50FA6 ====
-
[ho-ho-torrent.biz]_t_5576246
Torrent: Registered ·  [ 2018-06-23 00:45 ] ·  8c6038773b0696670492dc1c0912b4781384dd78

22 KB

Status: checked
Completed: 0 times
Size: 503 MB
Rating: 
(Votes: 0)
Say thanks: 0  Thanks
 
Похожие темы
[Profile] [PM]
Display posts from previous:    
Reply to topic

The time now is: Today 19:46

All times are GMT + 7 Hours



You cannot post new topics in this forum
You cannot reply to topics in this forum
You cannot edit your posts in this forum
You cannot delete your posts in this forum
You cannot vote in polls in this forum
You cannot attach files in this forum
You can download files in this forum